˂
˃
Tarqatmalar statistikasi
Ko‘chirmoqdaman: [ 5 ]
Ko‘chirib bo‘ldim: [ 29 ]
 
     
 
 

Ahmadullo ®

Jins:
Yigit
Staj:
8 oy 14 kun
Xabarlar:
73
Taqiq:

21 ko'prik / 21 мост / 21 Bridges
--Chiqqan yili: 2019
Davlat: AQSh
Janr: Jangari, triller, drama, jinoyat
Davomiyligi: 01:39:57
Tarjima: Professional (Dublyaj) O'zbek tilida (SevimliTV)
Tarjima 2: Professional (Dublyaj) Rus tilida
Tarjima 2: Professional (Original) Ingliz tilida--Rejissyor: Brian Kirk--Rollarda: Chadwick Bowzman, Sienna Miller, Teylor Kitsch, J.K. Simmons, Stefan Jeyms, Keyt Devid, Aleksandr Siddig, Lui Kanselmi, Viktoriya Kartagena, Gari Karr--Film Haqida: U Manxettendagi qo'rqinchli talonchilikni amalga oshirgan jinoyatchilarni qidirib topib, orqasida 8 o'lik politsiyachini qoldirgan. Bu orada, politsiyachilar uni ovlashga kirishib, uni topishga harakat qilishmoqda. Ammo jinoyatchilar yashirina olishmaydi, chunki Nyu-York tarixida birinchi marta politsiya orolning barcha chiqishlarini, shu jumladan 21 ko'prikni to'sib qo'ydi.--Videoning sifati: BRRip
Video format: MKV-Video: HEVC H265 1920x808 23.97fps 1 776 kb/s
Audio: AAC 44000Hz stereo O'zbek tili
Audio 2: AC3 48000Hz stereo 384 Kbit/s Rus tili
Audio 3: AC3 48000Hz stereo 448 Kbit/s Ing tili
Subtitrlar: Ingliz tilida --

Media Info

General
Unique ID : 171606774962844314250685513828616601008 (0x811A433D6D8F2203EE62973E97377DB0)
Complete name : K:\MEDIA\HD MOVIES\TARJIMA HD x264 x265\2019-2020\21.ko'prik.2019.1080p.BrRip.mkv
Format : Matroska
Format version : Version 4
File size : 2.24 GiB
Duration : 1 h 39 min
Overall bit rate : 3 204 kb/s
Movie name : PSArips.com | 21.Bridges.2019.1080p.BrRip.6CH.x265.HEVC-PSA
Encoded date : UTC 2020-02-11 05:08:37
Writing application : mkvmerge v21.0.0 ('Tardigrades Will Inherit The Earth') 64-bit
Writing library : libebml v1.3.5 + libmatroska v1.4.8
Video
ID : 1
Format : HEVC
Format/Info : High Efficiency Video Coding
Format profile : Main@L4@Main
Codec ID : V_MPEGH/ISO/HEVC
Duration : 1 h 39 min
Bit rate : 1 776 kb/s
Width : 1 920 pixels
Height : 808 pixels
Display aspect ratio : 2.40:1
Frame rate mode : Constant
Frame rate : 23.976 (24000/1001) FPS
Color space : YUV
Chroma subsampling : 4:2:0
Bit depth : 8 bits
Bits/(Pixel*Frame) : 0.048
Stream size : 1.24 GiB (55%)
Default : Yes
Forced : No
Audio #1
ID : 2
Format : AAC LC
Format/Info : Advanced Audio Codec Low Complexity
Codec ID : A_AAC-2
Duration : 1 h 39 min
Bit rate : 192 kb/s
Channel(s) : 2 channels
Channel layout : L R
Sampling rate : 44.1 kHz
Frame rate : 43.066 FPS (1024 SPF)
Compression mode : Lossy
Stream size : 139 MiB (6%)
Title : uzb by MUAH
Language : Russian
Default : Yes
Forced : Yes
Audio #2
ID : 3
Format : AC-3
Format/Info : Audio Coding 3
Commercial name : Dolby Digital
Codec ID : A_AC3
Duration : 1 h 39 min
Bit rate mode : Constant
Bit rate : 384 kb/s
Channel(s) : 6 channels
Channel layout : L R C LFE Ls Rs
Sampling rate : 48.0 kHz
Frame rate : 31.250 FPS (1536 SPF)
Bit depth : 16 bits
Compression mode : Lossy
Stream size : 275 MiB (12%)
Title : rus
Service kind : Complete Main
Default : No
Forced : No
Audio #3
ID : 4
Format : AC-3
Format/Info : Audio Coding 3
Commercial name : Dolby Digital
Codec ID : A_AC3
Duration : 1 h 39 min
Bit rate mode : Constant
Bit rate : 448 kb/s
Channel(s) : 6 channels
Channel layout : L R C LFE Ls Rs
Sampling rate : 48.0 kHz
Frame rate : 31.250 FPS (1536 SPF)
Bit depth : 16 bits
Compression mode : Lossy
Stream size : 320 MiB (14%)
Title : eng
Service kind : Complete Main
Default : No
Forced : No
Audio #4
ID : 5
Format : AAC LC SBR
Format/Info : Advanced Audio Codec Low Complexity with Spectral Band Replication
Commercial name : HE-AAC
Format settings : Explicit
Codec ID : A_AAC-2
Duration : 1 h 39 min
Bit rate : 202 kb/s
Channel(s) : 6 channels
Channel layout : C L R Ls Rs LFE
Sampling rate : 48.0 kHz
Frame rate : 23.438 FPS (2048 SPF)
Compression mode : Lossy
Delay relative to video : 23 ms
Stream size : 145 MiB (6%)
Language : English
Default : No
Forced : No
Audio #5
ID : 6
Format : AAC LC
Format/Info : Advanced Audio Codec Low Complexity
Codec ID : A_AAC-2
Duration : 1 h 39 min
Bit rate : 192 kb/s
Channel(s) : 2 channels
Channel layout : L R
Sampling rate : 44.1 kHz
Frame rate : 43.066 FPS (1024 SPF)
Compression mode : Lossy
Stream size : 139 MiB (6%)
Title : uzb by MUAH
Language : Russian
Default : No
Forced : Yes
Text #1
ID : 7
Format : UTF-8
Codec ID : S_TEXT/UTF8
Codec ID/Info : UTF-8 Plain Text
Duration : 10 s 0 ms
Bit rate : 36 b/s
Count of elements : 1
Stream size : 45.0 Bytes (0%)
Title : reliz
Language : Russian
Default : Yes
Forced : Yes
Text #2
ID : 8
Format : UTF-8
Codec ID : S_TEXT/UTF8
Codec ID/Info : UTF-8 Plain Text
Duration : 1 h 29 min
Bit rate : 52 b/s
Count of elements : 1116
Stream size : 34.5 KiB (0%)
Default : No
Forced : No
Text #3
ID : 9
Format : UTF-8
Codec ID : S_TEXT/UTF8
Codec ID/Info : UTF-8 Plain Text
Duration : 1 h 30 min
Bit rate : 56 b/s
Count of elements : 1249
Stream size : 37.6 KiB (0%)
Default : No
Forced : No
Text #4
ID : 10
Format : UTF-8
Codec ID : S_TEXT/UTF8
Codec ID/Info : UTF-8 Plain Text
Duration : 1 h 30 min
Bit rate : 52 b/s
Count of elements : 1117
Stream size : 34.5 KiB (0%)
Language : English
Default : No
Forced : No
Text #5
ID : 11
Format : UTF-8
Codec ID : S_TEXT/UTF8
Codec ID/Info : UTF-8 Plain Text
Duration : 1 h 30 min
Bit rate : 56 b/s
Count of elements : 1249
Stream size : 37.6 KiB (0%)
Title : SDH
Language : English
Default : No
Forced : No
Menu
00:00:00.000 : :Chapter 1
00:03:16.200 : :Chapter 2
00:07:48.600 : :Chapter 3
00:11:59.400 : :Chapter 4
00:16:54.800 : :Chapter 5
00:22:33.200 : :Chapter 6
00:30:54.600 : :Chapter 7
00:34:50.200 : :Chapter 8
00:40:16.600 : :Chapter 9
00:44:39.800 : :Chapter 10
00:50:54.800 : :Chapter 11
00:54:04.600 : :Chapter 12
00:58:52.400 : :Chapter 13
01:02:08.600 : :Chapter 14
01:06:19.800 : :Chapter 15
01:10:27.600 : :Chapter 16
01:16:19.800 : :Chapter 17
01:19:19.800 : :Chapter 18
01:25:15.200 : :Chapter 19
01:32:34.600 : :Chapter 20
LAVHALAR


So‘ngi marta tahrirlandi: Ahmadullo (2020-02-11 12:58), Jami tahrirlangan 1 marta
Profil ShX

N.U.R.I.K.B.E.K

Jins:
Yigit
Staj:
2 yil 8 oy
Xabarlar:
590

Qayerdan: Jizzax. Paxtakor

Taqiq:

BDRip 1080p HEVC
Video sfatini tõğri yozib qõying

Mavzu yaratish 11-Fev-2020 10:31 (7 daqiqa o‘tgach)

Iqitibos

Profil ShX

Lock

Jins:
Yigit
Staj:
1 yil 8 oy
Xabarlar:
72

Qayerdan: Namangan

Taqiq:

Ovoz yaxshi tushgan deb umid qilamiz

Mavzu yaratish 11-Fev-2020 12:09 (1 soat 38 daqiqa o‘tgach)

Iqitibos

Profil ShX

N.U.R.I.K.B.E.K

Jins:
Yigit
Staj:
2 yil 8 oy
Xabarlar:
590

Qayerdan: Jizzax. Paxtakor

Taqiq:

Lock, menda tayor hozr joyliman

Mavzu yaratish 11-Fev-2020 12:27 (18 daqiqa o‘tgach)

Iqitibos

Profil ShX

Ahmadullo ®

Jins:
Yigit
Staj:
8 oy 14 kun
Xabarlar:
73
Taqiq:

Lock, aha ancha vaqt oldi ,manimcha hammasi joyida

Mavzu yaratish 11-Fev-2020 12:57 (29 daqiqa o‘tgach)

Iqitibos

Profil ShX

Ahmadullo ®

Jins:
Yigit
Staj:
8 oy 14 kun
Xabarlar:
73
Taqiq:

N.U.R.I.K.B.E.K, originalda shunday yozilgan edi,Bluray Rip - shuni BrRip degan manimcha,BDrip brrip bita narsa manimcha BD bluraydisc

Mavzu yaratish 11-Fev-2020 12:58 (1 daqiqa o‘tgach)

Iqitibos

Profil ShX

N.U.R.I.K.B.E.K

Jins:
Yigit
Staj:
2 yil 8 oy
Xabarlar:
590

Qayerdan: Jizzax. Paxtakor

Taqiq:

Ahmadullo, shunday shekili

Mavzu yaratish 11-Fev-2020 13:03 (5 daqiqa o‘tgach)

Iqitibos

Profil ShX
Xabarlarni ko‘rsatish:    

Hozirgi vaqt: 07-Iyul 05:13

Vaqtlar farqi: UTC + 5



Siz mavzu yaratishingiz mumkin emas
Siz xabarlarga javob qaytarishingiz mumkin emas
Siz o‘z xabarlaringizni tahrirlashingiz mumkin emas
Siz o‘z xabarlaringizni o‘chirishingiz mumkin emas
Siz so‘rovlarda ovoz berishingiz mumkin emas
Siz xabalarga fayllarni biriktirishingiz mumkin emas
Siz fayllarni ko‘chirishingiz mumkin emas