˂
˃
Tarqatmalar statistikasi
Ko‘chirmoqdaman: [ 3 ]
Ko‘chirib bo‘ldim: [ 24 ]
 
     
 
 

Ahmadullo ®

Jins:
Yigit
Staj:
5 oy 14 kun
Xabarlar:
56
Taqiq:

-- Kung Fu Panda 1,2,3 --Sarlavha : Kung Fu Panda 1,2,3
Asl sarlavha: Кунг-фу Панда 1,2,3
Chiqarilgan yili: 2008, 2011, 2016,
Janr: Multfilm, kulguli, sarguzasht
Vaqt: 01:32:10 | 01:30:24 | 01:31:11
-

Kung Fu Panda 1

-Kung Fu Panda 1 --Chiqqan yili: 2008
Davlat: AQSh
Janr: Kulguli, sarguzasht
Davomiyligi: 01:32:10
Tarjima: Professional O'zbek tilida
Tarjima 2: Professional (Dublyaj) Rus tilida
Tarjima 3: Professional (Original) Ingliz tilida--Rejissyor: Mark Osborne--Rollarda: Jek Blek, Dastin Xoffman, Anjelina Joli, Ien MakShan, Jekki Chan, Set Rojen, Lyusi Liu, Devid Kros, Randall Dak Kim, Jeyms Xon.-Tavsif: Tinchlik vodiysini va uning barcha aholisini yengilmas va shafqatsiz usta Tay Lungdan qutqarish eng yaxshi, tanlangan Ajdarxo Jangchisi yelkasiha olishi kerak ... u bema'ni, dangasa va abadiy och bo'lgan panda Po. U afsonaviy jangchilar: Yo'lbars, Maymun, Ibodat Mantis, Viper va Kran bilan yonma-yon Kung Fu mahoratining cho'qqilariga uzoq va qiyin yo'lni bosib o'tdi. Qadimgi O'qish sirini anglash va Dragon Jangari bo'lish, agar u o'ziga ishonishi mumkin bo'lsa ...-Videoning sifati: BDRip
Video format: MKV-Video: H264, ~ 2 400 Kbit/s, 1280x540
Audio: O'zbekcha (AAC, 2 ch, 192 Kbit/s)
Audio 2: Ruscha (AAC, 2 ch, 192 Kbit/s)
Audio 3: Inglizcha (AAC, 2 ch, 192 Kbit/s)
Subtitrlar: Ruscha va inglizcha--

Media Info

General
General
Unique ID : 192296658385383862981889021379849299420 (0x90AAFD4013F221277B5335B56F9925DC)
Complete name : K:\MEDIA\HD MOVIES\TARJIMA HD x264 x265\COLLECTION\KUNG-FU PANDA 1-2-3\Kungfu.Panda.1.BDRip.mkv
Format : Matroska
Format version : Version 4
File size : 1.87 GiB
Duration : 1 h 32 min
Overall bit rate : 2 905 kb/s
Encoded date : UTC 2019-12-16 10:12:24
Writing application : mkvmerge v21.0.0 ('Tardigrades Will Inherit The Earth') 64-bit
Writing library : libebml v1.3.5 + libmatroska v1.4.8
Video
ID : 1
Format : AVC
Format/Info : Advanced Video Codec
Format profile : High@L4.1
Format settings : CABAC / 4 Ref Frames
Format settings, CABAC : Yes
Format settings, Reference fra : 4 frames
Codec ID : V_MPEG4/ISO/AVC
Duration : 1 h 32 min
Bit rate : 2 400 kb/s
Width : 1 280 pixels
Height : 540 pixels
Display aspect ratio : 2.40:1
Frame rate mode : Constant
Frame rate : 23.976 (24000/1001) FPS
Color space : YUV
Chroma subsampling : 4:2:0
Bit depth : 8 bits
Scan type : Progressive
Bits/(Pixel*Frame) : 0.145
Stream size : 1.53 GiB (82%)
Writing library : x264 core 146
Encoding settings : cabac=1 / ref=1 / deblock=1:0:0 / analyse=0x3:0x113 / me=hex / subme=2 / psy=1 / psy_rd=1.00:0.00 / mixed_ref=0 / me_range=16 / chroma_me=1 / trellis=0 / 8x8dct=1 / cqm=0 / deadzone=21,11 / fast_pskip=1 / chroma_qp_offset=0 / threads=3 / lookahead_threads=1 / sliced_threads=0 / nr=0 / decimate=1 / interlaced=0 / bluray_compat=0 / constrained_intra=0 / bframes=3 / b_pyramid=2 / b_adapt=1 / b_bias=0 / direct=1 / weightb=1 / open_gop=0 / weightp=1 / keyint=250 / keyint_min=23 / scenecut=40 / intra_refresh=0 / rc_lookahead=10 / rc=abr / mbtree=1 / bitrate=2400 / ratetol=1.0 / qcomp=0.60 / qpmin=0 / qpmax=69 / qpstep=4 / vbv_maxrate=2500 / vbv_bufsize=2500 / nal_hrd=none / filler=0 / ip_ratio=1.40 / aq=1:1.00
Default : Yes
Forced : No
Audio #1
ID : 2
Format : AAC LC
Format/Info : Advanced Audio Codec Low Complexity
Codec ID : A_AAC-2
Duration : 1 h 32 min
Bit rate : 192 kb/s
Channel(s) : 2 channels
Channel layout : L R
Sampling rate : 44.1 kHz
Frame rate : 43.066 FPS (1024 SPF)
Compression mode : Lossy
Delay relative to video : -21 ms
Stream size : 129 MiB (7%)
Language : Uzbek
Default : Yes
Forced : Yes
Audio #2
ID : 3
Format : AAC LC
Format/Info : Advanced Audio Codec Low Complexity
Codec ID : A_AAC-2
Duration : 1 h 32 min
Bit rate : 192 kb/s
Channel(s) : 2 channels
Channel layout : L R
Sampling rate : 48.0 kHz
Frame rate : 46.875 FPS (1024 SPF)
Compression mode : Lossy
Delay relative to video : -21 ms
Stream size : 129 MiB (7%)
Default : No
Forced : Yes
Audio #3
ID : 4
Format : AAC LC
Format/Info : Advanced Audio Codec Low Complexity
Codec ID : A_AAC-2
Duration : 1 h 32 min
Bit rate : 128 kb/s
Channel(s) : 2 channels
Channel layout : L R
Sampling rate : 48.0 kHz
Frame rate : 46.875 FPS (1024 SPF)
Compression mode : Lossy
Delay relative to video : -21 ms
Stream size : 84.4 MiB (4%)
Default : No
Forced : No
Text #1
ID : 5
Format : UTF-8
Codec ID : S_TEXT/UTF8
Codec ID/Info : UTF-8 Plain Text
Duration : 10 s 0 ms
Bit rate : 36 b/s
Count of elements : 1
Stream size : 45.0 Bytes (0%)
Default : Yes
Forced : Yes
Text #2
ID : 6
Format : UTF-8
Codec ID : S_TEXT/UTF8
Codec ID/Info : UTF-8 Plain Text
Duration : 1 h 25 min
Bit rate : 82 b/s
Count of elements : 977
Stream size : 51.5 KiB (0%)
Default : No
Forced : No
Text #3
ID : 7
Format : UTF-8
Codec ID : S_TEXT/UTF8
Codec ID/Info : UTF-8 Plain Text
Duration : 1 h 25 min
Bit rate : 47 b/s
Count of elements : 977
Stream size : 29.9 KiB (0%)
Default : No
Forced : No
Text #4
ID : 8
Format : UTF-8
Codec ID : S_TEXT/UTF8
Codec ID/Info : UTF-8 Plain Text
Duration : 1 h 25 min
Bit rate : 47 b/s
Count of elements : 977
Stream size : 29.8 KiB (0%)
Default : No
Forced : No
LAVHALAR

Kung Fu Panda 2

-Kung Fu Panda 2 --Chiqqan yili: 2011
Davlat: AQSh
Janr: Kulguli, sarguzasht
Davomiyligi: 01:30:24
Tarjima: Professional O'zbek tilida
Tarjima 2: Professional (Dublyaj) Rus tilida--Rejissyor: Jennifer Yu--Rollarda: Jek Blek, Anjelina Joli, Dastin Xoffman, Gari Oldman, Jekki Chan, Seth Rojen, Lyusi Liu, Devid Kross, Mishel Yeo, Jan-Klod Van Damm.--Tavsif: Panda Po nihoyat orzusini ro'yobga chiqaradi, Ajdaho Jangchi bo'ladi va do'stlari va kung-fu ustalari bilan - "G'azablangan Besh" - Buyuk vodiyni dahshatli qahramon va uning legionidan himoya qiladi ...-Videoning sifati: BDRip 1080p
Video format: MKV-Video: H264, 4 900 Kbit/s, 1920x816
Audio: O'zbekcha (AAC, 2 ch, 128 Kbit/s)
Audio 2: Ruscha (AC3, 2 ch, 192 Kbit/s)
Subtitrlar: ---

Media Info

General
Unique ID : 69393102807518305344847661850156821002 (0x3434A01E596E37605C855FEFF53F6A0A)
Complete name : K:\MEDIA\HD MOVIES\TARJIMA HD x264 x265\COLLECTION\KUNG-FU PANDA 1-2-3\Kungfu.Panda.2.BDRip.mkv
Format : Matroska
Format version : Version 4
File size : 3.27 GiB
Duration : 1 h 30 min
Overall bit rate : 5 182 kb/s
Encoded date : UTC 2019-10-06 03:45:01
Writing application : mkvmerge v21.0.0 ('Tardigrades Will Inherit The Earth') 64-bit
Writing library : libebml v1.3.5 + libmatroska v1.4.8
Video
ID : 1
Format : AVC
Format/Info : Advanced Video Codec
Format profile : High@L4.1
Format settings : CABAC / 4 Ref Frames
Format settings, CABAC : Yes
Format settings, Reference fra : 4 frames
Codec ID : V_MPEG4/ISO/AVC
Duration : 1 h 30 min
Bit rate : 4 900 kb/s
Width : 1 920 pixels
Height : 816 pixels
Display aspect ratio : 2.35:1
Frame rate mode : Constant
Frame rate : 23.976 (24000/1001) FPS
Color space : YUV
Chroma subsampling : 4:2:0
Bit depth : 8 bits
Scan type : Progressive
Bits/(Pixel*Frame) : 0.130
Stream size : 3.07 GiB (94%)
Writing library : x264 core 146
Encoding settings : cabac=1 / ref=1 / deblock=1:0:0 / analyse=0x3:0x113 / me=hex / subme=2 / psy=1 / psy_rd=1.00:0.00 / mixed_ref=0 / me_range=16 / chroma_me=1 / trellis=0 / 8x8dct=1 / cqm=0 / deadzone=21,11 / fast_pskip=1 / chroma_qp_offset=0 / threads=3 / lookahead_threads=1 / sliced_threads=0 / nr=0 / decimate=1 / interlaced=0 / bluray_compat=0 / constrained_intra=0 / bframes=3 / b_pyramid=2 / b_adapt=1 / b_bias=0 / direct=1 / weightb=1 / open_gop=0 / weightp=1 / keyint=250 / keyint_min=23 / scenecut=40 / intra_refresh=0 / rc_lookahead=10 / rc=abr / mbtree=1 / bitrate=4900 / ratetol=1.0 / qcomp=0.60 / qpmin=0 / qpmax=69 / qpstep=4 / vbv_maxrate=5000 / vbv_bufsize=5000 / nal_hrd=none / filler=0 / ip_ratio=1.40 / aq=1:1.00
Default : Yes
Forced : No
Audio #1
ID : 2
Format : AAC LC
Format/Info : Advanced Audio Codec Low Complexity
Codec ID : A_AAC-2
Duration : 1 h 30 min
Bit rate : 192 kb/s
Channel(s) : 2 channels
Channel layout : L R
Sampling rate : 48.0 kHz
Frame rate : 46.875 FPS (1024 SPF)
Compression mode : Lossy
Delay relative to video : -21 ms
Stream size : 126 MiB (4%)
Default : Yes
Forced : Yes
Audio #2
ID : 3
Format : AAC LC
Format/Info : Advanced Audio Codec Low Complexity
Codec ID : A_AAC-2
Duration : 1 h 30 min
Bit rate : 128 kb/s
Channel(s) : 2 channels
Channel layout : L R
Sampling rate : 48.0 kHz
Frame rate : 46.875 FPS (1024 SPF)
Compression mode : Lossy
Delay relative to video : -21 ms
Stream size : 82.8 MiB (2%)
Default : No
Forced : No
Text
ID : 4
Format : UTF-8
Codec ID : S_TEXT/UTF8
Codec ID/Info : UTF-8 Plain Text
Duration : 10 s 0 ms
Bit rate : 36 b/s
Count of elements : 1
Stream size : 45.0 Bytes (0%)
Default : Yes
Forced : Yes
LAVHALAR

Kung Fu Panda 3

-Kung Fu Panda 3 --Chiqqan yili: 2016
Davlat: AQSh,Xitoy
Janr: Kulguli, sarguzasht
Davomiyligi: 01:35:12
Tarjima: Professional O'zbek tilida
Tarjima 2: Professional (Dublyaj) Rus tilida--Rejissyor: Alessandro Carloni--Rollarda: Jek Blek, Brayan Kranston, Dastin Xoffman, Anjelina Joli, J.K. Simmons, Jekki Chan, Seth Rojen, Lyusi Liu, Devid Kros, Kate Huds-Tavsif: U uzoq vaqtdan beri yo'qolgan otasi ko'rishdi va u bilan qaytadan yashirin pandalar joyiga yo'l oladi va u yerda ko'plab quvnoq qarindoshlari bilan uchrashishni kutadi. Ammo, tez orada yovuz Kay xavf sola boshlaydi - u butun Xitoy bo'ylab kung-fu ustalarini yo'q qiladi. Quvnoq pandalar bilan to'la qishloqqa jang san'atini o'rgatish va shu bilan ularni kung-fu pandalari bo'linmasiga aylantirish imkonsiz bo'lsada lekin bunga harakat qilmoqda.-Videoning sifati: BDRip 1080p
Video format: MKV
Video: H264, ~ 4 900 Kbit/s, 1916x812
Audio: O'zbekcha (AAC, 2 ch, 128 Kbit/s)
Audio 2: Ruscha (AAC, 2 ch, 192 Kbit/s)
Subtitrlar: Ruscha va inglizcha--

Media Info

General
Unique ID : 338843734704056642707233375362707918867 (0xFEEAEDF498012CE36F09E83237F49013)
Complete name : K:\MEDIA\HD MOVIES\TARJIMA HD x264 x265\COLLECTION\KUNG-FU PANDA 1-2-3\Kungfu.Panda.3.BDRip.mkv
Format : Matroska
Format version : Version 4
File size : 3.45 GiB
Duration : 1 h 35 min
Overall bit rate : 5 192 kb/s
Encoded date : UTC 2019-10-03 10:06:46
Writing application : mkvmerge v21.0.0 ('Tardigrades Will Inherit The Earth') 64-bit
Writing library : libebml v1.3.5 + libmatroska v1.4.8
Video
ID : 1
Format : AVC
Format/Info : Advanced Video Codec
Format profile : High@L4.1
Format settings : CABAC / 4 Ref Frames
Format settings, CABAC : Yes
Format settings, Reference fra : 4 frames
Codec ID : V_MPEG4/ISO/AVC
Duration : 1 h 35 min
Bit rate : 4 900 kb/s
Width : 1 916 pixels
Height : 812 pixels
Display aspect ratio : 2.35:1
Frame rate mode : Constant
Frame rate : 23.976 (24000/1001) FPS
Color space : YUV
Chroma subsampling : 4:2:0
Bit depth : 8 bits
Scan type : Progressive
Bits/(Pixel*Frame) : 0.131
Stream size : 3.23 GiB (94%)
Writing library : x264 core 148 r2643 5c65704
Encoding settings : cabac=1 / ref=1 / deblock=1:0:0 / analyse=0x3:0x113 / me=hex / subme=2 / psy=1 / psy_rd=1.00:0.00 / mixed_ref=0 / me_range=16 / chroma_me=1 / trellis=0 / 8x8dct=1 / cqm=0 / deadzone=21,11 / fast_pskip=1 / chroma_qp_offset=0 / threads=3 / lookahead_threads=1 / sliced_threads=0 / nr=0 / decimate=1 / interlaced=0 / bluray_compat=0 / constrained_intra=0 / bframes=3 / b_pyramid=2 / b_adapt=1 / b_bias=0 / direct=1 / weightb=1 / open_gop=0 / weightp=1 / keyint=250 / keyint_min=23 / scenecut=40 / intra_refresh=0 / rc_lookahead=10 / rc=abr / mbtree=1 / bitrate=4900 / ratetol=1.0 / qcomp=0.60 / qpmin=0 / qpmax=69 / qpstep=4 / vbv_maxrate=5000 / vbv_bufsize=5000 / nal_hrd=none / filler=0 / ip_ratio=1.40 / aq=1:1.00
Default : Yes
Forced : No
Audio #1
ID : 2
Format : AAC LC
Format/Info : Advanced Audio Codec Low Complexity
Codec ID : A_AAC-2
Duration : 1 h 35 min
Bit rate : 192 kb/s
Channel(s) : 2 channels
Channel layout : L R
Sampling rate : 48.0 kHz
Frame rate : 46.875 FPS (1024 SPF)
Compression mode : Lossy
Delay relative to video : -21 ms
Stream size : 133 MiB (4%)
Default : Yes
Forced : Yes
Audio #2
ID : 3
Format : AAC LC
Format/Info : Advanced Audio Codec Low Complexity
Codec ID : A_AAC-2
Duration : 1 h 34 min
Bit rate : 132 kb/s
Channel(s) : 2 channels
Channel layout : L R
Sampling rate : 48.0 kHz
Frame rate : 46.875 FPS (1024 SPF)
Compression mode : Lossy
Delay relative to video : -21 ms
Stream size : 90.5 MiB (3%)
Default : No
Forced : No
Text #1
ID : 4
Format : UTF-8
Codec ID : S_TEXT/UTF8
Codec ID/Info : UTF-8 Plain Text
Duration : 10 s 0 ms
Bit rate : 36 b/s
Count of elements : 1
Stream size : 45.0 Bytes (0%)
Default : Yes
Forced : Yes
Text #2
ID : 5
Format : UTF-8
Codec ID : S_TEXT/UTF8
Codec ID/Info : UTF-8 Plain Text
Duration : 1 h 25 min
Bit rate : 82 b/s
Count of elements : 977
Stream size : 51.5 KiB (0%)
Default : No
Forced : No
Text #3
ID : 6
Format : UTF-8
Codec ID : S_TEXT/UTF8
Codec ID/Info : UTF-8 Plain Text
Duration : 1 h 19 min
Bit rate : 78 b/s
Count of elements : 862
Stream size : 45.3 KiB (0%)
Default : No
Forced : No
Menu
00:00:00.000 : en:00:00:00.000
00:05:20.737 : en:00:05:20.737
00:08:09.197 : en:00:08:09.197
00:09:58.973 : en:00:09:58.973
00:12:24.994 : en:00:12:24.994
00:15:23.172 : en:00:15:23.172
00:19:07.187 : en:00:19:07.187
00:24:38.351 : en:00:24:38.351
00:30:16.564 : en:00:30:16.564
00:33:52.947 : en:00:33:52.947
00:36:17.216 : en:00:36:17.216
00:39:54.600 : en:00:39:54.600
00:43:31.608 : en:00:43:31.608
00:46:44.801 : en:00:46:44.801
00:51:40.138 : en:00:51:40.138
00:56:03.568 : en:00:56:03.568
00:59:47.124 : en:00:59:47.124
01:02:10.267 : en:01:02:10.267
01:05:25.920 : en:01:05:25.920
01:10:15.793 : en:01:10:15.793
01:14:05.856 : en:01:14:05.856
01:17:05.535 : en:01:17:05.535
01:20:33.743 : en:01:20:33.743
01:24:20.136 : en:01:24:20.136
LAVHALAR


So‘ngi marta tahrirlandi: Ahmadullo (2020-02-08 17:06), Jami tahrirlangan 5 marta
Profil ShX

N.U.R.I.K.B.E.K

Jins:
Yigit
Staj:
2 yil 5 oy
Xabarlar:
590

Qayerdan: Jizzax. Paxtakor

Taqiq:

buni fayli qani

Mavzu yaratish 06-Fev-2020 16:33 (8 daqiqa o‘tgach)

Iqitibos

Profil ShX

Ahmadullo ®

Jins:
Yigit
Staj:
5 oy 14 kun
Xabarlar:
56
Taqiq:

N.U.R.I.K.B.E.K, endi quyaman

Mavzu yaratish 06-Fev-2020 16:35 (2 daqiqa o‘tgach)

Iqitibos

Profil ShX

KILLER_89-10

Jins:
Yigit
Staj:
2 yil
Xabarlar:
36
Taqiq:

8952Kung Fu Panda 2
Kung Fu Panda 2 dagi skrinshodni to'g'rlang

Mavzu yaratish 08-Fev-2020 09:32 (1 kun 16 soat o‘tgach)

Iqitibos

Profil ShX

Ahmadullo ®

Jins:
Yigit
Staj:
5 oy 14 kun
Xabarlar:
56
Taqiq:

KILLER_89-10, rahmat,to'g'irlandi

Mavzu yaratish 08-Fev-2020 17:07 (7 soat o‘tgach)

Iqitibos

Profil ShX
Xabarlarni ko‘rsatish:    

Hozirgi vaqt: 07-Apr 02:35

Vaqtlar farqi: UTC + 5



Siz mavzu yaratishingiz mumkin emas
Siz xabarlarga javob qaytarishingiz mumkin emas
Siz o‘z xabarlaringizni tahrirlashingiz mumkin emas
Siz o‘z xabarlaringizni o‘chirishingiz mumkin emas
Siz so‘rovlarda ovoz berishingiz mumkin emas
Siz xabalarga fayllarni biriktirishingiz mumkin emas
Siz fayllarni ko‘chirishingiz mumkin emas