˂
˃
Tarqatmalar statistikasi
Ko‘chirmoqdaman: [ 2 ]
Ko‘chirib bo‘ldim: [ 6 ]
 
     
 
 

UmarShoh ®

Jins:
Yigit
Staj:
2 yil 2 oy
Xabarlar:
430
Taqiq:

- Uy / Home-- -Chiqqan yili: 2015
Davlat: AQSH
Janr: Multfilm, sarguzasht, oilaviy
Davomiyligi: 01:33:48
Tarjima: Professional (Yoshlar telekanali) o'zbek tilida-Rejissyor: Tim Johnson
Rollarni ovozlashtirganlar: Jim Parsons, Rihanna, Steve Martin, Jennifer Lopez,
Matt Jones, Brian Stepanek, April Strubing, Stephen Kearin, Lisa Stewart, April Winchell, Derek Blankenship, Nigel W. Tierney.-Tavsif:
Tavsif: Yerni haddan tashqari ishongan Boov egallab olganida, uyga qo'ng'iroq qilish uchun yangi joy qidirib kelgan begona irq,
barcha odamlar tezda ko'chiriladi, Boov esa sayyorani qayta tashkil etish bilan band. Ammo bitta topqir qiz Tip ushlanishdan qochib qutulganida
Bo ning tasodifan sherigi bo'ladi. Ikkala qochqin umr yo'ldoshi safari chog'ida boshlangan intergalaktik
munosabatlardan tashqari ko'proq narsa talab qilinishini tushunishadi..-Videoning sifati: BDRip HEVC 1080p 10 bit
Video format: MKV
Video: HEVC 1920x1040 23.976fps 4998 Kbps
Audio #1: MP3, 48000Hz stereo 2ch 128 Kbps O'zbek tilida
Audio #2: AAC LC, 8 ch, 507 kbps, 48.0 kHz Inglizcha-

MediaInfo


General
Unique ID : 306748953218132031255620464984896473772 (0xE6C5B30E947E7BC53BB10B4C524E8AAC)
Complete name : D:\Media\Multfilmlar\Multfilmlar\071) Home [ 2015 BluRay 1080p x265 10bit ] O`zbek tilida.mkv
Format : Matroska
Format version : Version 4
File size : 3.70 GiB
Duration : 1 h 33 min
Overall bit rate : 5 641 kb/s
Movie name : Home
Encoded date : UTC 2020-02-04 15:49:37
Writing application : mkvmerge v43.0.0 ('The Quartermaster') 64-bit
Writing library : libebml v1.3.10 + libmatroska v1.5.2
Video
ID : 1
Format : HEVC
Format/Info : High Efficiency Video Coding
Format profile : Main 10@L4@Main
Codec ID : V_MPEGH/ISO/HEVC
Duration : 1 h 33 min
Bit rate : 4 998 kb/s
Width : 1 920 pixels
Height : 1 040 pixels
Display aspect ratio : 1.85:1
Frame rate mode : Constant
Frame rate : 23.976 (24000/1001) FPS
Color space : YUV
Chroma subsampling : 4:2:0
Bit depth : 10 bits
Bits/(Pixel*Frame) : 0.104
Stream size : 3.27 GiB (89%)
Writing library : x265 2.8+40-0106f9f2f867:[Windows][GCC 7.3.0][64 bit] 10bit
Encoding settings : cpuid=1111039 / frame-threads=3 / numa-pools=8 / wpp / no-pmode / no-pme / no-psnr / no-ssim / log-level=2 / input-csp=1 / input-res=1920x1040 / interlace=0 / total-frames=134941 / level-idc=0 / high-tier=1 / uhd-bd=0 / ref=4 / no-allow-non-conformance / no-repeat-headers / annexb / no-aud / no-hrd / info / hash=0 / no-temporal-layers / open-gop / min-keyint=23 / keyint=250 / gop-lookahead=0 / bframes=4 / b-adapt=2 / b-pyramid / bframe-bias=0 / rc-lookahead=25 / lookahead-slices=4 / scenecut=40 / radl=0 / no-intra-refresh / ctu=64 / min-cu-size=8 / rect / no-amp / max-tu-size=32 / tu-inter-depth=1 / tu-intra-depth=1 / limit-tu=0 / rdoq-level=2 / dynamic-rd=0.00 / no-ssim-rd / signhide / no-tskip / nr-intra=0 / nr-inter=0 / no-constrained-intra / strong-intra-smoothing / max-merge=3 / limit-refs=3 / limit-modes / me=3 / subme=3 / merange=57 / temporal-mvp / weightp / no-weightb / no-analyze-src-pics / deblock=0:0 / sao / no-sao-non-deblock / rd=4 / no-early-skip / rskip / no-fast-intra / no-tskip-fast / no-cu-lossless / no-b-intra / no-splitrd-skip / rdpenalty=0 / psy-rd=2.00 / psy-rdoq=1.00 / no-rd-refine / no-lossless / cbqpoffs=0 / crqpoffs=0 / rc=abr / bitrate=5000 / qcomp=0.60 / qpstep=4 / stats-write=0 / stats-read=2 / cplxblur=20.0 / qblur=0.5 / ipratio=1.40 / pbratio=1.30 / aq-mode=2 / aq-strength=1.00 / cutree / zone-count=0 / no-strict-cbr / qg-size=32 / no-rc-grain / qpmax=69 / qpmin=0 / no-const-vbv / sar=0 / overscan=0 / videoformat=5 / range=0 / colorprim=2 / transfer=2 / colormatrix=2 / chromaloc=0 / display-window=0 / max-cll=0,0 / min-luma=0 / max-luma=1023 / log2-max-poc-lsb=8 / vui-timing-info / vui-hrd-info / slices=1 / no-opt-qp-pps / no-opt-ref-list-length-pps / multi-pass-opt-rps / scenecut-bias=0.05 / no-opt-cu-delta-qp / aq-motion / no-hdr / no-hdr-opt / no-dhdr10-opt / no-idr-recovery-sei / analysis-reuse-level=5 / scale-factor=0 / refine-intra=0 / refine-inter=0 / refine-mv=0 / no-limit-sao / ctu-info=0 / no-lowpass-dct / refine-mv-type=0 / copy-pic=1 / max-ausize-factor=1.0 / no-dynamic-refine / no-single-sei
Language : English
Default : Yes
Forced : No
Audio #1
ID : 2
Format : AAC LC
Format/Info : Advanced Audio Codec Low Complexity
Codec ID : A_AAC-2
Duration : 1 h 33 min
Bit rate : 507 kb/s
Channel(s) : 8 channels
Channel layout : C L R Ls Rs Lb Rb LFE
Sampling rate : 48.0 kHz
Frame rate : 46.875 FPS (1024 SPF)
Compression mode : Lossy
Delay relative to video : 20 ms
Stream size : 340 MiB (9%)
Title : Original
Language : English
Default : Yes
Forced : No
Audio #2
ID : 3
Format : MPEG Audio
Format version : Version 1
Format profile : Layer 3
Format settings : Joint stereo
Codec ID : A_MPEG/L3
Codec ID/Hint : MP3
Duration : 1 h 33 min
Bit rate mode : Constant
Bit rate : 128 kb/s
Channel(s) : 2 channels
Sampling rate : 44.1 kHz
Frame rate : 38.281 FPS (1152 SPF)
Compression mode : Lossy
Stream size : 85.9 MiB (2%)
Title : Yoshlar (UmarShoh_FL)
Writing library : LAME3.99.5
Language : Uzbek
Default : No
Forced : No
Text
ID : 4
Format : VobSub
Muxing mode : zlib
Codec ID : S_VOBSUB
Codec ID/Info : Picture based subtitle format used on DVDs
Duration : 1 h 23 min
Bit rate : 8 915 b/s
Count of elements : 1141
Stream size : 5.30 MiB (0%)
Title : Original
Language : English
Default : No
Forced : No
Menu
00:00:00.000 : en:Chapter 01
00:03:43.723 : en:Chapter 02
00:07:28.406 : en:Chapter 03
00:11:19.428 : en:Chapter 04
00:14:26.949 : en:Chapter 05
00:17:58.952 : en:Chapter 06
00:21:05.639 : en:Chapter 07
00:25:18.850 : en:Chapter 08
00:29:07.078 : en:Chapter 09
00:33:14.283 : en:Chapter 10
00:38:59.503 : en:Chapter 11
00:41:31.155 : en:Chapter 12
00:44:28.082 : en:Chapter 13
00:46:51.141 : en:Chapter 14
00:51:34.549 : en:Chapter 15
00:56:25.924 : en:Chapter 16
01:00:43.681 : en:Chapter 17
01:03:53.120 : en:Chapter 18
01:06:57.722 : en:Chapter 19
01:09:44.763 : en:Chapter 20
01:13:55.764 : en:Chapter 21
01:18:11.770 : en:Chapter 22
01:21:55.493 : en:Chapter 23
01:23:56.031 : en:Chapter 24
Profil ShX
Xabarlarni ko‘rsatish:    

Hozirgi vaqt: 04-Iyun 03:28

Vaqtlar farqi: UTC + 5



Siz mavzu yaratishingiz mumkin emas
Siz xabarlarga javob qaytarishingiz mumkin emas
Siz o‘z xabarlaringizni tahrirlashingiz mumkin emas
Siz o‘z xabarlaringizni o‘chirishingiz mumkin emas
Siz so‘rovlarda ovoz berishingiz mumkin emas
Siz xabalarga fayllarni biriktirishingiz mumkin emas
Siz fayllarni ko‘chirishingiz mumkin emas