˂
˃
Tarqatmalar statistikasi
Ko‘chiraman: [ 1 ]
Ko‘chirmoqdaman: [ 6 ]
Ko‘chirib bo‘ldim: [ 30 ]
 
     
 
 

N.U.R.I.K.B.E.K ®

Jins:
Yigit
Staj:
2 yil 8 oy
Xabarlar:
590

Qayerdan: Jizzax. Paxtakor

Taqiq:

- --Buyuk Urush | Великая битва | The Great Battle--
Chiqqan yili: 2018
Davlat: Janubiy Koreya
Janr: Jangari, Harbiy, Tarixiy.
Davomiyligi: 02:16:02
Tarjima: Professional O'zbekiston Tarixi O'zbek Tilida.--Rejissyor: Kin Gvan Shik.--Rollarda:
Cho In-Son, Nam Ju-xyuk, Pak Sung-un, Pe Sung-u, Om Tae-gu, Kim Sol-Xyun, Pak Pxen-un, O Da Xvan, Song Dong-il, Jong Yun-che--Tavsif:
Filmning harakati ettinchi asrda sodir bo'ladi. Li Shimin-millionlab armiya yordamida yangi erlarni egallagan Xitoy imperatori. Uning maqsadi Koreya yarim orolining shimolida va Manchuriyaning ko'p qismini nazorat qiluvchi kuchli Kogure davlatining erlarini egallashdir. Hech narsa yo'lda to'xtaydi va qal'alar birma-bir fath etiladi. Endi u Ansi qal'asini bosib olishi kerak, uning himoyasi uchun Kogure armiyasi generali Jan man-chi keldi. Dushmanning keng tarqalishiga qaramasdan, u qal'a va uning davlatini himoya qilish uchun qo'lidan kelganicha harakat qilishga tayyor. Shunday qilib, buyuk jang boshlanadi, natijasi hikoyani boshqaradi...--Videoning sifati: BDRip 1080p
Video format: MKV--Video: MPEG4 Video (H264) 1920x800 23.976fps 2 100 kb/s
Audio: MP3 48000Hz stereo 128kbps O'zbek Tili-
-

Media Info

General
Format : Matroska
Format version : Version 4 / Version 2
File size : 2.12 GiB
Duration : 2 h 16 min
Overall bit rate : 2 229 kb/s
Encoded date : UTC 2020-02-03 16:34:52
Writing application : mkvmerge v15.0.0 ('Duel with the Devil') 64-bit
Writing library : libebml v1.3.5 + libmatroska v1.4.5
Video
ID : 1
Format : AVC
Format/Info : Advanced Video Codec
Format profile : High@L4.1
Format settings, CABAC : Yes
Format settings, RefFrames : 4 frames
Codec ID : V_MPEG4/ISO/AVC
Duration : 2 h 16 min
Bit rate : 2 100 kb/s
Width : 1 920 pixels
Height : 800 pixels
Display aspect ratio : 2.40:1
Frame rate mode : Constant
Frame rate : 23.976 (24000/1001) FPS
Color space : YUV
Chroma subsampling : 4:2:0
Bit depth : 8 bits
Scan type : Progressive
Bits/(Pixel*Frame) : 0.057
Stream size : 1.99 GiB (94%)
Writing library : x264 core 158
Default : Yes
Forced : No
Audio
ID : 2
Format : MPEG Audio
Format version : Version 1
Format profile : Layer 3
Mode : Joint stereo
Mode extension : MS Stereo
Codec ID : A_MPEG/L3
Codec ID/Hint : MP3
Duration : 2 h 16 min
Bit rate mode : Constant
Bit rate : 128 kb/s
Channel(s) : 2 channels
Sampling rate : 48.0 kHz
Frame rate : 41.667 FPS (1152 SPF)
Compression mode : Lossy
Stream size : 125 MiB (6%)
Title : O'zbek Tili
Language : Uzbek
Default : Yes
Forced : Yes
LAVHALAR
Profil ShX
Xabarlarni ko‘rsatish:    

Hozirgi vaqt: 07-Iyul 05:55

Vaqtlar farqi: UTC + 5



Siz mavzu yaratishingiz mumkin emas
Siz xabarlarga javob qaytarishingiz mumkin emas
Siz o‘z xabarlaringizni tahrirlashingiz mumkin emas
Siz o‘z xabarlaringizni o‘chirishingiz mumkin emas
Siz so‘rovlarda ovoz berishingiz mumkin emas
Siz xabalarga fayllarni biriktirishingiz mumkin emas
Siz fayllarni ko‘chirishingiz mumkin emas