˂
˃
Tarqatmalar statistikasi
Ko‘chirmoqdaman: [ 4 ]
Ko‘chirib bo‘ldim: [ 19 ]
 
     
 
 

N.U.R.I.K.B.E.K ®

Jins:
Yigit
Staj:
2 yil 6 oy
Xabarlar:
590

Qayerdan: Jizzax. Paxtakor

Taqiq:

-Shiroq 4 | Шрэк 4 | Shrek 4
--Chiqqan yili: 2010
Davlat: AQSH
Janr: Multfilm, Hayoliy, Sarguzasht, Komediya, Oilaviy
Davomiyligi: 01:33:10
Tarjima: Professional SevimliTv O'zbek Tilida.--Rejissyor: Mayk Mitchell.--Rollarni ovozlashtirganlar: Mayk Mayers, Eddie Myorfi, Cameron Diaz, Antonio Banderas, Julie Andrews, Jon Hamm, Jon Kliz, Walt Dorn, Jeyn Lynch, Kreyg Robinson--Tavsif: Yovuz ajdar bilan jang qilgan ogra uchun yana nima qilish kerak, go'zal Malikani saqlab qoldi va xotinining qarindoshlarining Shohligi baxtsizlikdan qutqarildi? Xo'sh, Agar siz Shrek bo'lsangiz, unda siz buni sezmaysiz, siz to'satdan uyda o'tirasiz va oilangiz bilan tinchlikdan bahramand bo'lasiz. Qishloq aholisini qo'rqitish o'rniga, endi Shrek, istaksiz bo'lsa-da, lekin ularning vilkalariga imzo chekishga rozi. Va bu ograning mashhur baliqlari qaerga ketdi?
U "haqiqiy bog `" kabi his qilgan kunlarning xotiralari ostida, Shrek Shirin sochli Rumpelstiltsxenning ishonchiga o'zini bag'ishlaydi va u bilan shartnoma tuzadi. Shundan so'ng, Shrek har bir narsa boshdan kechiriladigan uzoq Qirollikning muqobil haqiqatida paydo bo'ladi: bu erda Ogrov ovlanadi, Rumpelstiltschen taxtda o'tiradi va Shrek va Fiona ham tanish emas. Va endi faqat Shrekning o'zi do'stlarini qutqarish, odatiy tartibni tiklash va uning yagona haqiqiy sevgisini qaytarish uchun qilgan hamma narsalarini tuzatishi mumkin.--Videoning sifati: BDRip 1080p HEVC 10bit
Video format: MKV
Video: H265 1920x816 23.976fps 2 619 kb/s
Audio: MP3 48000Hz stereo 128kbps O'zbek Tili--

Media Info

General
Format : Matroska
Format version : Version 4 / Version 2
File size : 1.79 GiB
Duration : 1 h 33 min
Overall bit rate : 2 749 kb/s
Movie name : -=LEONARDO=-
Encoded date : UTC 2020-02-02 17:47:03
Writing application : mkvmerge v15.0.0 ('Duel with the Devil') 64-bit
Writing library : libebml v1.3.5 + libmatroska v1.4.5
Cover : Yes
Attachments : cover.png / cover.jpg
Video
ID : 1
Format : HEVC
Format/Info : High Efficiency Video Coding
Format profile : Main 10@L4.1@High
Codec ID : V_MPEGH/ISO/HEVC
Duration : 1 h 33 min
Bit rate : 2 619 kb/s
Width : 1 920 pixels
Height : 816 pixels
Display aspect ratio : 2.35:1
Frame rate mode : Constant
Frame rate : 23.976 (24000/1001) FPS
Color space : YUV
Chroma subsampling : 4:2:0
Bit depth : 10 bits
Bits/(Pixel*Frame) : 0.070
Stream size : 1.70 GiB (95%)
Writing library : x265 2.6+22-ff02513b92c0:[Windows][GCC 7.2.0][64 bit] 10bit
Default : Yes
Forced : Yes
Color range : Limited
Matrix coefficients : BT.709
Audio
ID : 2
Format : MPEG Audio
Format version : Version 1
Format profile : Layer 3
Mode : Joint stereo
Mode extension : MS Stereo
Codec ID : A_MPEG/L3
Codec ID/Hint : MP3
Duration : 1 h 33 min
Bit rate mode : Constant
Bit rate : 128 kb/s
Channel(s) : 2 channels
Sampling rate : 48.0 kHz
Frame rate : 41.667 FPS (1152 SPF)
Compression mode : Lossy
Stream size : 85.3 MiB (5%)
Title : Uzb
Language : Uzbek
Default : Yes
Forced : Yes
LAVHALAR
Profil ShX
Xabarlarni ko‘rsatish:    

Hozirgi vaqt: 30-May 00:42

Vaqtlar farqi: UTC + 5



Siz mavzu yaratishingiz mumkin emas
Siz xabarlarga javob qaytarishingiz mumkin emas
Siz o‘z xabarlaringizni tahrirlashingiz mumkin emas
Siz o‘z xabarlaringizni o‘chirishingiz mumkin emas
Siz so‘rovlarda ovoz berishingiz mumkin emas
Siz xabalarga fayllarni biriktirishingiz mumkin emas
Siz fayllarni ko‘chirishingiz mumkin emas