˂
˃
Tarqatmalar statistikasi
Ko‘chirmoqdaman: [ 3 ]
Ko‘chirib bo‘ldim: [ 19 ]
 
     
 
 

N.U.R.I.K.B.E.K ®

Jins:
Yigit
Staj:
2 yil 8 oy
Xabarlar:
590

Qayerdan: Jizzax. Paxtakor

Taqiq:

Shiroq 3 | Шрэк 3 | Shrek 3
--Chiqqan yili: 2007
Davlat: AQSH
Janr: Multfilm, Hayoliy, Sarguzasht, Komediya, Oilaviy
Davomiyligi: 01:32:48
Tarjima: Professional SevimliTv O'zbek Tilida.--Rejissyor: Kris Miller, Raman Xyui.--Rollarni ovozlashtirganlar: Mayk Myers, Eddi Merfi, Cameron Diaz, Antonio Banderas, Julie Andrews, Jon Kliz, Rupert Everett, Erik Aydle, Justin Timberlake, Susan Bleyksley.--Tavsif: Shoh har bir kishi bo'lishi mumkin emas-ayniqsa, agar siz juda yaxshi gigant bo'lmasangiz. Shrek Malika Fiona bilan turmush qurganida, u dunyodagi eng uzoq mamlakatni boshqarishni xohladi. U juda yoqimsiz. Biroq, Fiona otasi, Shoh Harold to'satdan vafot etdi va toj Shrekni meros qilib olishi kerak edi. Qanday bo'lmasin, u hali ham merosxo'rning eri.
Biroq, Shrek hokimiyat yukini rad etadi va taxtga nomzodni qidirish uchun eski do'stlari eshak va mushuk bilan birga borishga qaror qiladi. Agar Shrek o'zi uchun munosib o'rnini topa olmasa, u ajoyib mamlakatni o'zi boshqarishi kerak ... va bu uzoq vaqt. Shoh Artur ularga kerak bo'lgan odam kabi ko'rinadi.
Biroq, gigant bo'lmasa, uning eski dushmani Charming ismli Shahzoda har qanday iflosliklarni tuzadi, bu uchun u ajoyib mamlakatga qaytadi. Shrek mamlakatni dushmanlarning intrigalaridan va mumkin bo'lgan to'ntarishdan qutqarish uchun juda qattiq harakat qilishi kerak.--Videoning sifati: BDRip 1080p HEVC 10bit
Video format: MKV--Video: H265 1920x1080 23.976fps 3 005 kb/s
Audio: MP3 48000Hz stereo 128kbps O'zbek Tili--

Media Info

General
Format : Matroska
Format version : Version 4 / Version 2
File size : 2.03 GiB
Duration : 1 h 32 min
Overall bit rate : 3 135 kb/s
Movie name : -=LEONARDO=-
Encoded date : UTC 2020-02-02 17:41:37
Writing application : mkvmerge v15.0.0 ('Duel with the Devil') 64-bit
Writing library : libebml v1.3.5 + libmatroska v1.4.5
Cover : Yes
Attachments : cover.png / cover.jpg
Video
ID : 1
Format : HEVC
Format/Info : High Efficiency Video Coding
Format profile : Main 10@L4.1@High
Codec ID : V_MPEGH/ISO/HEVC
Duration : 1 h 32 min
Bit rate : 3 005 kb/s
Width : 1 920 pixels
Height : 1 080 pixels
Display aspect ratio : 16:9
Frame rate mode : Constant
Frame rate : 23.976 (24000/1001) FPS
Color space : YUV
Chroma subsampling : 4:2:0
Bit depth : 10 bits
Bits/(Pixel*Frame) : 0.060
Stream size : 1.95 GiB (96%)
Writing library : x265 2.6+22-ff02513b92c0:[Windows][GCC 7.2.0][64 bit] 10bit
Default : Yes
Forced : Yes
Color range : Limited
Matrix coefficients : BT.709
Audio
ID : 2
Format : MPEG Audio
Format version : Version 1
Format profile : Layer 3
Mode : Joint stereo
Mode extension : MS Stereo
Codec ID : A_MPEG/L3
Codec ID/Hint : MP3
Duration : 1 h 32 min
Bit rate mode : Constant
Bit rate : 128 kb/s
Channel(s) : 2 channels
Sampling rate : 48.0 kHz
Frame rate : 41.667 FPS (1152 SPF)
Compression mode : Lossy
Stream size : 85.0 MiB (4%)
Title : Uzb
Writing library : LAME
Language : Uzbek
Default : Yes
Forced : Yes
LAVHALAR
Profil ShX
Xabarlarni ko‘rsatish:    

Hozirgi vaqt: 07-Iyul 05:39

Vaqtlar farqi: UTC + 5



Siz mavzu yaratishingiz mumkin emas
Siz xabarlarga javob qaytarishingiz mumkin emas
Siz o‘z xabarlaringizni tahrirlashingiz mumkin emas
Siz o‘z xabarlaringizni o‘chirishingiz mumkin emas
Siz so‘rovlarda ovoz berishingiz mumkin emas
Siz xabalarga fayllarni biriktirishingiz mumkin emas
Siz fayllarni ko‘chirishingiz mumkin emas