˂
˃
Tarqatmalar statistikasi
Ko‘chirmoqdaman: [ 4 ]
Ko‘chirib bo‘ldim: [ 32 ]
 
     
 
 

Ahmadullo ®

Jins:
Yigit
Staj:
8 oy 22 kun
Xabarlar:
73
Taqiq:

Jaxldor qushlar 2| Angry Birds 2 в кино | The Angry Birds Movie 2
--Chiqqan yili: 2019
Davlat: AQSH,Finlandiya
Janr: Komediya, sarguzasht, oilaviy
Davomiyligi: 01:36:47
Tarjima: Professional O'zbek tilida
Tarjima 2: Professional (Dublyaj) Rus tilida
Tarjima 3: Professional (Original) Ingliz tilida--Rejissyor: Thurop Van Orman--Rollarda: Jeyson Sudeikis, Josh Gad, Lesli Jons, Bill Xader, Reychel Bloom, Aquafina, Sterling K. Braun, Evgenio Derbes, Tiffani Xaddish, Danny Makbrayd--Film Haqida: Qushlar och yashil cho'chqalarning mavjudligi haqida bilib oldilar, shundan so'ng ko'p yillar davom etgan muqaddas urush boshlandi. Biroq, endi ufqda yangi dushman paydo bo'ldi - uchinchi, muzlatilgan orolning aholisi Zeta. Uning so'zlariga ko'ra, hamma sovuqning kuchini his qilishi kerak va issiq mintaqalarda yashaydigan uzoq qarindoshlariga hujum qilishni boshlaydi. Endi qushlar va cho'chqalar muzlashni to'xtatish uchun birlashishi kerak.--Videoning sifati: BDRip 1080p
Video format: MKV-Video: HEVC Video (H265) 1912x1032 23.976fps 1 497 kb/s
Audio: AAC 44000Hz stereo O'zbek tili
Audio 2: AC3 48000Hz 6ch Rus tili
Audio 2: AAC 48000Hz 6ch Ingliz tili
Subtitrlar: ---

Media Info

General
Unique ID : 304256346868252472456192600893595407463 (0xE4E5A4135B0B8B2A0A801A5A434D5467)
Complete name : K:\MEDIA\HD MOVIES\TARJIMA HD x264 x265\2019-2020\Jaxldor.qushlar.2.2019.1080p.by.MUAH.mkv
Format : Matroska
Format version : Version 4
File size : 1.52 GiB
Duration : 1 h 36 min
Overall bit rate : 2 253 kb/s
Encoded date : UTC 2020-02-02 04:35:55
Writing application : mkvmerge v21.0.0 ('Tardigrades Will Inherit The Earth') 64-bit
Writing library : libebml v1.3.5 + libmatroska v1.4.8
Video
ID : 1
Format : HEVC
Format/Info : High Efficiency Video Coding
Format profile : Main@L4@Main
Codec ID : V_MPEGH/ISO/HEVC
Duration : 1 h 36 min
Bit rate : 1 497 kb/s
Width : 1 912 pixels
Height : 1 032 pixels
Display aspect ratio : 1.85:1
Frame rate mode : Constant
Frame rate : 23.976 (24000/1001) FPS
Color space : YUV
Chroma subsampling : 4:2:0
Bit depth : 8 bits
Bits/(Pixel*Frame) : 0.032
Stream size : 1.01 GiB (66%)
Writing library : x265 2.9+1-169e76b6bbcc:[Windows][GCC 8.2.0][64 bit] 8bit+10bit+12bit
Encoding settings : cpuid=1053679 / frame-threads=2 / numa-pools=4 / wpp / no-pmode / no-pme / no-psnr / no-ssim / log-level=2 / input-csp=1 / input-res=1912x1032 / interlace=0 / total-frames=139248 / level-idc=0 / high-tier=1 / uhd-bd=0 / ref=3 / no-allow-non-conformance / no-repeat-headers / annexb / no-aud / no-hrd / info / hash=0 / no-temporal-layers / open-gop / min-keyint=23 / keyint=250 / gop-lookahead=0 / bframes=4 / b-adapt=2 / b-pyramid / bframe-bias=0 / rc-lookahead=20 / lookahead-slices=6 / scenecut=40 / radl=0 / no-intra-refresh / ctu=64 / min-cu-size=8 / no-rect / no-amp / max-tu-size=32 / tu-inter-depth=1 / tu-intra-depth=1 / limit-tu=0 / rdoq-level=0 / dynamic-rd=0.00 / no-ssim-rd / signhide / no-tskip / nr-intra=0 / nr-inter=0 / no-constrained-intra / strong-intra-smoothing / max-merge=2 / limit-refs=3 / no-limit-modes / me=1 / subme=2 / merange=57 / temporal-mvp / weightp / no-weightb / no-analyze-src-pics / deblock=0:0 / sao / no-sao-non-deblock / rd=3 / no-early-skip / rskip / no-fast-intra / no-tskip-fast / no-cu-lossless / no-b-intra / no-splitrd-skip / rdpenalty=0 / psy-rd=2.00 / psy-rdoq=0.00 / no-rd-refine / no-lossless / cbqpoffs=0 / crqpoffs=0 / rc=abr / bitrate=1500 / qcomp=0.60 / qpstep=4 / stats-write=0 / stats-read=0 / ipratio=1.40 / pbratio=1.30 / aq-mode=1 / aq-strength=1.00 / cutree / zone-count=0 / no-strict-cbr / qg-size=32 / no-rc-grain / qpmax=69 / qpmin=0 / no-const-vbv / sar=1 / overscan=0 / videoformat=5 / range=0 / colorprim=2 / transfer=2 / colormatrix=2 / chromaloc=0 / display-window=0 / max-cll=0,0 / min-luma=0 / max-luma=255 / log2-max-poc-lsb=8 / vui-timing-info / vui-hrd-info / slices=1 / no-opt-qp-pps / no-opt-ref-list-length-pps / no-multi-pass-opt-rps / scenecut-bias=0.05 / no-opt-cu-delta-qp / no-aq-motion / no-hdr / no-hdr-opt / no-dhdr10-opt / no-idr-recovery-sei / analysis-reuse-level=5 / scale-factor=0 / refine-intra=0 / refine-inter=0 / refine-mv=0 / no-limit-sao / ctu-info=0 / no-lowpass-dct / refine-mv-type=0 / copy-pic=1 / max-ausize-factor=1.0 / no-dynamic-refine / no-single-sei
Default : Yes
Forced : No
Audio #1
ID : 2
Format : AAC LC
Format/Info : Advanced Audio Codec Low Complexity
Codec ID : A_AAC-2
Duration : 1 h 36 min
Bit rate : 177 kb/s
Channel(s) : 2 channels
Channel layout : L R
Sampling rate : 44.1 kHz
Frame rate : 43.066 FPS (1024 SPF)
Compression mode : Lossy
Stream size : 123 MiB (8%)
Title : uzb by MUAH
Language : Russian
Default : Yes
Forced : Yes
Audio #2
ID : 3
Format : AC-3
Format/Info : Audio Coding 3
Commercial name : Dolby Digital
Codec ID : A_AC3
Duration : 1 h 36 min
Bit rate mode : Constant
Bit rate : 384 kb/s
Channel(s) : 6 channels
Channel layout : L R C LFE Ls Rs
Sampling rate : 48.0 kHz
Frame rate : 31.250 FPS (1536 SPF)
Bit depth : 16 bits
Compression mode : Lossy
Stream size : 266 MiB (17%)
Title : rus
Language : Russian
Service kind : Complete Main
Default : No
Forced : No
Audio #3
ID : 4
Format : AAC LC
Format/Info : Advanced Audio Codec Low Complexity
Codec ID : A_AAC-2
Duration : 1 h 36 min
Bit rate : 192 kb/s
Channel(s) : 6 channels
Channel layout : C L R Ls Rs LFE
Sampling rate : 48.0 kHz
Frame rate : 46.875 FPS (1024 SPF)
Compression mode : Lossy
Delay relative to video : 9 ms
Stream size : 133 MiB (9%)
Title : english
Language : English
Default : No
Forced : No
Text #1
ID : 5
Format : UTF-8
Codec ID : S_TEXT/UTF8
Codec ID/Info : UTF-8 Plain Text
Duration : 10 s 0 ms
Bit rate : 36 b/s
Count of elements : 1
Stream size : 45.0 Bytes (0%)
Title : reiliz
Language : Russian
Default : Yes
Forced : Yes
Text #2
ID : 6
Format : UTF-8
Codec ID : S_TEXT/UTF8
Codec ID/Info : UTF-8 Plain Text
Duration : 4 s 87 ms
Bit rate : 68 b/s
Count of elements : 2
Stream size : 35.0 Bytes (0%)
Title : alltor.me
Language : English
Default : No
Forced : Yes
Text #3
ID : 7
Format : UTF-8
Codec ID : S_TEXT/UTF8
Codec ID/Info : UTF-8 Plain Text
Duration : 1 h 36 min
Bit rate : 0 b/s
Count of elements : 16
Stream size : 561 Bytes (0%)
Title : alltor.me
Language : Russian
Default : No
Forced : No
LAVHALAR
Profil ShX

jasur1390

Jins:
Ko‘rsatilmagan
Staj:
2 yil 3 oy
Xabarlar:
1
Taqiq:

Jaxldor qushlar 2 / Angry Birds 2 в кино / The Angry Birds Movie 2 (Thurop Van Orman) [2019, multfilm, komediya, sarguzasht, oilaviy, BDRip 1080p HEVC] O'zbek,rus va ingliz tilida

Mavzu yaratish 03-Mar-2020 20:20 (1 oy 1 kun o‘tgach)

Iqitibos

Profil ShX

L1on

Jins:
Yigit
Staj:
1 yil 11 oy
Xabarlar:
23
Taqiq:

Uch xil tilda berib yotibdi xd 3x1

Mavzu yaratish 14-May-2020 11:01 (2 oy 10 kun o‘tgach)

Iqitibos

Profil ShX

L1on

Jins:
Yigit
Staj:
1 yil 11 oy
Xabarlar:
23
Taqiq:

Uch xil tilda berib yotibdi xd 3x1

Mavzu yaratish 14-May-2020 11:02 (22 soniya o‘tgach)

Iqitibos

Profil ShX

L1on

Jins:
Yigit
Staj:
1 yil 11 oy
Xabarlar:
23
Taqiq:

Dublyajni ham rosa boplabsiz 3 xil tilda berib yotibdi

Mavzu yaratish 14-May-2020 11:04 (2 daqiqa o‘tgach)

Iqitibos

Profil ShX
Xabarlarni ko‘rsatish:    

Hozirgi vaqt: 15-Iyul 04:05

Vaqtlar farqi: UTC + 5



Siz mavzu yaratishingiz mumkin emas
Siz xabarlarga javob qaytarishingiz mumkin emas
Siz o‘z xabarlaringizni tahrirlashingiz mumkin emas
Siz o‘z xabarlaringizni o‘chirishingiz mumkin emas
Siz so‘rovlarda ovoz berishingiz mumkin emas
Siz xabalarga fayllarni biriktirishingiz mumkin emas
Siz fayllarni ko‘chirishingiz mumkin emas