˂
˃
Tarqatmalar statistikasi
Ko‘chirmoqdaman: [ 5 ]
Ko‘chirib bo‘ldim: [ 18 ]
 
     
 
 

Ahmadullo ®

Jins:
Yigit
Staj:
8 oy 23 kun
Xabarlar:
73
Taqiq:

Sevastopol muhofazasi uchun | Битва за Севастополь| Незламна
--Chiqqan yili: 2015
Davlat: Rossiya
Janr: Drama, melodrama
Davomiyligi: 02:02:52
Tarjima: Professional (Dublyaj) O'zbek tilida (My5TV)
Tarjima 2: Professional (Dublyaj) Rus tilida--Rejissyor: Sergey Mokritskiy--Rollarda: Yuliya Peresild, Evgeniy Tsyganov, Oleg Vasilkov, Nikita Tarasov, Joan Blekham, Polina Paxomova, Vladimir Lilitskiy, Anatoliy Kot, Natella Abeleva-Taganova, Valeriy Grishko, Sergey Barkovskiy, Vitaliy Linetskiy, Sergey Puskepalis, Gennadiy Chentsadov, Svetlana Osnovna Stanislav Boklan, Dmitriy Lalenkov, Stanislav Lesnoy, Sergey Siplivy ...--Film Haqida: Dushmanning cheksiz olovi ostida bo'lgan sevgi, Eleanor Ruzvelt bilan do'stlik, Ikkinchi Jahon urushi oqibatlari, yashash istagi va sevgan insonini yo'qotish qo'rquviga ta'sir qilgan konferentsiyada so'zlagan - mo'rt ayol bularning barchasini bardosh beradimi?
Bu afsonaviy ayol mergan - Lyudmila Pavlichenkoning haqiqiy hikoyasi. Askarlar uning nomi bilan lablariga urishgan va dushmanlar uni ov qilishgan. Jang maydonida u o'lim va azob-uqubatlarni ko'rdi, ammo uning uchun eng jiddiy sinov bu urushning unga bo'lgan muhabbatidir ...--Videoning sifati: BDRip
Video format: MKV-Video: MPEG4 960x400 24fps 2 082 kb/s
Audio: AAC 44000Hz stereo O'zbek tili
Audio 2: AAC 44000Hz mono Rus tili
Subtitrlar: - --

Media Info

General
Unique ID : 245953889363576040663766456379105883050 (0xB908FEFCE54A6D691C4B943ED96C33AA)
Complete name : K:\MEDIA\HD MOVIES\TARJIMA HD x264 x265\2019-2020\Sevestopol.muxofazasi.uchun.(2015).BDRip.mkv
Format : Matroska
Format version : Version 4
File size : 2.34 GiB
Duration : 2 h 2 min
Overall bit rate : 2 729 kb/s
Movie name : Битва за Севастополь (2015) BDRip [GER Transfer]
Encoded date : UTC 2020-02-01 06:56:38
Writing application : mkvmerge v21.0.0 ('Tardigrades Will Inherit The Earth') 64-bit
Writing library : libebml v1.3.5 + libmatroska v1.4.8
Cover : Yes
Attachments : cover.jpg
Video
ID : 1
Format : AVC
Format/Info : Advanced Video Codec
Format profile : High@L4.1
Format settings : CABAC / 11 Ref Frames
Format settings, CABAC : Yes
Format settings, Reference fra : 11 frames
Codec ID : V_MPEG4/ISO/AVC
Duration : 2 h 2 min
Bit rate : 2 082 kb/s
Width : 960 pixels
Height : 400 pixels
Display aspect ratio : 2.40:1
Frame rate mode : Constant
Frame rate : 24.000 FPS
Color space : YUV
Chroma subsampling : 4:2:0
Bit depth : 8 bits
Scan type : Progressive
Bits/(Pixel*Frame) : 0.226
Stream size : 1.79 GiB (76%)
Title : Битва за Севастополь (2015) By optik.1557
Writing library : x264 core 148 r2744kMod b97ae06
Encoding settings : cabac=1 / ref=11 / deblock=1:-2:-1 / analyse=0x3:0x113 / me=umh / subme=10 / psy=1 / fade_compensate=0.00 / psy_rd=1.03:0.19 / mixed_ref=1 / me_range=48 / chroma_me=1 / trellis=2 / 8x8dct=1 / cqm=0 / deadzone=21,11 / fast_pskip=0 / chroma_qp_offset=-3 / threads=6 / lookahead_threads=1 / sliced_threads=0 / nr=0 / decimate=1 / interlaced=0 / bluray_compat=0 / constrained_intra=0 / bframes=15 / b_pyramid=2 / b_adapt=2 / b_bias=0 / direct=1 / weightb=1 / open_gop=0 / weightp=2 / keyint=250 / keyint_min=24 / scenecut=40 / intra_refresh=0 / rc_lookahead=60 / rc=crf / mbtree=0 / crf=17.2000 / qcomp=0.60 / qpmin=0 / qpmax=69 / qpstep=4 / vbv_maxrate=50000 / vbv_bufsize=62500 / crf_max=0.0 / nal_hrd=none / filler=0 / ip_ratio=1.40 / pb_ratio=1.30 / aq=3:0.80
Language : Russian
Default : Yes
Forced : No
Audio #1
ID : 2
Format : AAC LC
Format/Info : Advanced Audio Codec Low Complexity
Codec ID : A_AAC-2
Duration : 2 h 2 min
Bit rate : 196 kb/s
Channel(s) : 2 channels
Channel layout : L R
Sampling rate : 44.1 kHz
Frame rate : 43.066 FPS (1024 SPF)
Compression mode : Lossy
Stream size : 172 MiB (7%)
Title : uzb by MUAH
Language : Russian
Default : Yes
Forced : Yes
Audio #2
ID : 3
Format : AC-3
Format/Info : Audio Coding 3
Commercial name : Dolby Digital
Codec ID : A_AC3
Duration : 2 h 2 min
Bit rate mode : Constant
Bit rate : 448 kb/s
Channel(s) : 6 channels
Channel layout : L R C LFE Ls Rs
Sampling rate : 48.0 kHz
Frame rate : 31.250 FPS (1536 SPF)
Bit depth : 16 bits
Compression mode : Lossy
Stream size : 394 MiB (16%)
Title : Original
Language : Russian
Service kind : Complete Main
Default : No
Forced : No
Text #1
ID : 4
Format : UTF-8
Codec ID : S_TEXT/UTF8
Codec ID/Info : UTF-8 Plain Text
Duration : 10 s 0 ms
Bit rate : 36 b/s
Count of elements : 1
Stream size : 45.0 Bytes (0%)
Title : reliz
Default : Yes
Forced : Yes
Text #2
ID : 5
Format : UTF-8
Codec ID : S_TEXT/UTF8
Codec ID/Info : UTF-8 Plain Text
Duration : 1 h 57 min
Bit rate : 15 b/s
Count of elements : 227
Stream size : 13.2 KiB (0%)
Title : Форсированные
Language : Russian
Default : No
Forced : No
Text #3
ID : 6
Format : UTF-8
Codec ID : S_TEXT/UTF8
Codec ID/Info : UTF-8 Plain Text
Duration : 1 h 57 min
Bit rate : 1 b/s
Count of elements : 45
Stream size : 1.67 KiB (0%)
Title : Forced
Language : German
Default : No
Forced : No
Text #4
ID : 7
Format : UTF-8
Codec ID : S_TEXT/UTF8
Codec ID/Info : UTF-8 Plain Text
Duration : 1 h 57 min
Bit rate : 61 b/s
Count of elements : 1306
Stream size : 53.0 KiB (0%)
Title : Full
Language : German
Default : No
Forced : No
Menu
00:00:00.000 : de:Chapter 01
00:10:08.916 : de:Chapter 02
00:18:13.333 : de:Chapter 03
00:26:37.250 : de:Chapter 04
00:36:05.375 : de:Chapter 05
00:46:11.166 : de:Chapter 06
00:53:33.791 : de:Chapter 07
01:02:41.416 : de:Chapter 08
01:13:43.958 : de:Chapter 09
01:21:31.208 : de:Chapter 10
01:30:22.625 : de:Chapter 11
01:43:18.333 : de:Chapter 12
01:59:19.875 : de:Chapter 13
02:02:49.666 : de:Chapter 14
LAVHALAR
Profil ShX

N.U.R.I.K.B.E.K

Jins:
Yigit
Staj:
2 yil 8 oy
Xabarlar:
590

Qayerdan: Jizzax. Paxtakor

Taqiq:

sh kinodamidi 18+ ketib qogan ekranda

Mavzu yaratish 01-Fev-2020 21:26 (6 soat o‘tgach)

Iqitibos

Profil ShX

Ahmadullo ®

Jins:
Yigit
Staj:
8 oy 23 kun
Xabarlar:
73
Taqiq:

N.U.R.I.K.B.E.K, yugeee ))) lekin tugirlayotganimda kurinmadiku

Mavzu yaratish 03-Fev-2020 16:12 (1 kun 18 soat o‘tgach)

Iqitibos

Profil ShX
Xabarlarni ko‘rsatish:    

Hozirgi vaqt: 15-Iyul 12:56

Vaqtlar farqi: UTC + 5



Siz mavzu yaratishingiz mumkin emas
Siz xabarlarga javob qaytarishingiz mumkin emas
Siz o‘z xabarlaringizni tahrirlashingiz mumkin emas
Siz o‘z xabarlaringizni o‘chirishingiz mumkin emas
Siz so‘rovlarda ovoz berishingiz mumkin emas
Siz xabalarga fayllarni biriktirishingiz mumkin emas
Siz fayllarni ko‘chirishingiz mumkin emas