˂
˃
Tarqatmalar statistikasi
Ko‘chirmoqdaman: [ 2 ]
Ko‘chirib bo‘ldim: [ 8 ]
 
     
 
 

Ahmadullo ®

Jins:
Yigit
Staj:
7 oy 13 kun
Xabarlar:
72
Taqiq:

Sinov | Плохой парень| Kötü Çocuk
--Chiqqan yili: 2017
Davlat: Turkiya
Janr: Drama, melodrama
Davomiyligi: 01:54:44
Tarjima: Professional (Dublyaj) O'zbek tilida (My5TV)
Tarjima 2: Professional (Dublyaj) Rus tilida--Rejissyor: Yag'iz Apl Akaydin--Rollarda:Tolga Sarytash, AFRA Saracoglu, SARP Akkaya, Tyulin Ozen, Beads Bass Karaman, Demir Partjan, Hortense Kivanc--Film Haqida: Film Turkiyada mashhur bo'lgan Merich va Kaylaning sevgi hikoyasiga bag'ishlangan "Yomon odam" kitobi asosida suratga olingan. Kayl 17 yoshga to'lganda, boshqa shaharda otasi bilan uchrashadi. Ushbu notanish shaharda Kayla ko'p qiyinchiliklarni boshdan kechirmoqda va uning yonida doimo uni qo'llab-quvvatlaydigan bitta yigit bor. Merich - yolg'izlikni tanlagan, atrofiga baland devorlar qurgan yigit. Xushsiz holda, Kayla bu yigitga qiziqish bildiradi va unga ishonadi. Ammo Merichning sirlari oshkor bo'lganda, sevuvchilarning munosabatlari qiyin sinovlardan o'tadi ...--Videoning sifati: BDRip 720p
Video format: MKV-Video: MPEG4 1280x720 25fps 1 980 kb/s
Audio: AAC 44000Hz stereo O'zbek tili
Audio 2: AAC 44000Hz mono Rus tili--

Media Info

General
Unique ID : 172453508760530710128469092669934403421 (0x81BD5670784EB79BDE53E6F879EDFF5D)
Complete name : K:\MEDIA\HD MOVIES\TARJIMA HD x264 x265\2019-2020\Sinov.2017.720р.by.MUAH.mkv
Format : Matroska
Format version : Version 4
File size : 1.81 GiB
Duration : 1 h 54 min
Overall bit rate : 2 253 kb/s
Encoded date : UTC 2020-02-01 06:20:05
Writing application : mkvmerge v21.0.0 ('Tardigrades Will Inherit The Earth') 64-bit
Writing library : libebml v1.3.5 + libmatroska v1.4.8
Video
ID : 1
Format : AVC
Format/Info : Advanced Video Codec
Format profile : High@L3.1
Format settings : CABAC / 4 Ref Frames
Format settings, CABAC : Yes
Format settings, Reference fra : 4 frames
Codec ID : V_MPEG4/ISO/AVC
Duration : 1 h 54 min
Bit rate : 1 980 kb/s
Width : 1 280 pixels
Height : 720 pixels
Display aspect ratio : 16:9
Frame rate mode : Constant
Frame rate : 25.000 FPS
Color space : YUV
Chroma subsampling : 4:2:0
Bit depth : 8 bits
Scan type : Progressive
Bits/(Pixel*Frame) : 0.086
Stream size : 1.59 GiB (88%)
Writing library : x264 core 142
Encoding settings : cabac=1 / ref=3 / deblock=1:0:0 / analyse=0x3:0x113 / me=hex / subme=7 / psy=1 / psy_rd=1.00:0.00 / mixed_ref=1 / me_range=16 / chroma_me=1 / trellis=1 / 8x8dct=1 / cqm=0 / deadzone=21,11 / fast_pskip=1 / chroma_qp_offset=-2 / threads=6 / lookahead_threads=1 / sliced_threads=0 / nr=0 / decimate=1 / interlaced=0 / bluray_compat=0 / constrained_intra=0 / bframes=3 / b_pyramid=2 / b_adapt=1 / b_bias=0 / direct=1 / weightb=1 / open_gop=0 / weightp=2 / keyint=25 / keyint_min=2 / scenecut=40 / intra_refresh=0 / rc_lookahead=25 / rc=2pass / mbtree=1 / bitrate=1980 / ratetol=1.0 / qcomp=0.60 / qpmin=0 / qpmax=69 / qpstep=4 / cplxblur=20.0 / qblur=0.5 / ip_ratio=1.40 / aq=1:1.00
Default : Yes
Forced : No
Audio #1
ID : 2
Format : AAC LC
Format/Info : Advanced Audio Codec Low Complexity
Codec ID : A_AAC-2
Duration : 1 h 54 min
Bit rate : 192 kb/s
Channel(s) : 2 channels
Channel layout : L R
Sampling rate : 44.1 kHz
Frame rate : 43.066 FPS (1024 SPF)
Compression mode : Lossy
Delay relative to video : -23 ms
Stream size : 160 MiB (9%)
Title : uzb.by.MUAH
Language : Uzbek
Default : Yes
Forced : Yes
Audio #2
ID : 3
Format : AAC LC
Format/Info : Advanced Audio Codec Low Complexity
Codec ID : A_AAC-2
Duration : 1 h 54 min
Bit rate : 76.0 kb/s
Channel(s) : 1 channel
Channel layout : C
Sampling rate : 44.1 kHz
Frame rate : 43.066 FPS (1024 SPF)
Compression mode : Lossy
Delay relative to video : -23 ms
Stream size : 62.3 MiB (3%)
Title : rus
Default : No
Forced : No
Text
ID : 4
Format : UTF-8
Codec ID : S_TEXT/UTF8
Codec ID/Info : UTF-8 Plain Text
Duration : 10 s 0 ms
Bit rate : 36 b/s
Count of elements : 1
Stream size : 45.0 Bytes (0%)
Title : reliz
Default : Yes
Forced : Yes
LAVHALAR
Profil ShX

N.U.R.I.K.B.E.K

Jins:
Yigit
Staj:
2 yil 6 oy
Xabarlar:
590

Qayerdan: Jizzax. Paxtakor

Taqiq:

lotin harfida kiriting rejisyor nomini / to'g'irlab qo'ydim keyingilarda etiboli bo'ling ))

Mavzu yaratish 01-Fev-2020 14:53 (27 daqiqa o‘tgach)

Iqitibos

Profil ShX

Ahmadullo ®

Jins:
Yigit
Staj:
7 oy 13 kun
Xabarlar:
72
Taqiq:

N.U.R.I.K.B.E.K, hop)) rahmat

Mavzu yaratish 01-Fev-2020 16:08 (1 soat 14 daqiqa o‘tgach)

Iqitibos

Profil ShX
Xabarlarni ko‘rsatish:    

Hozirgi vaqt: 05-Iyun 18:51

Vaqtlar farqi: UTC + 5



Siz mavzu yaratishingiz mumkin emas
Siz xabarlarga javob qaytarishingiz mumkin emas
Siz o‘z xabarlaringizni tahrirlashingiz mumkin emas
Siz o‘z xabarlaringizni o‘chirishingiz mumkin emas
Siz so‘rovlarda ovoz berishingiz mumkin emas
Siz xabalarga fayllarni biriktirishingiz mumkin emas
Siz fayllarni ko‘chirishingiz mumkin emas