˂
˃
Tarqatmalar statistikasi
Ko‘chirmoqdaman: [ 4 ]
Ko‘chirib bo‘ldim: [ 42 ]
 
     
 
 

Ahmadullo ®

Jins:
Yigit
Staj:
8 oy 23 kun
Xabarlar:
73
Taqiq:

1917 | 1917 | 1917
--Chiqqan yili: 2019
Davlat: AQSh
Janr: Tarixiy, komediya, sarguzasht
Davomiyligi: 01:58:57
Tarjima: Professional (Dublyaj) O'zbek tilida (SevimliTV)
Tarjima 2: Professional (Dublyaj) Rus tilida
Tarjima 2: Professional (Original) Ingliz tilida--Rejissyor: Sam Mendes--Rollarda: Endryu Skot, Benedikt Kamberbatch, Kolin Fert, Richard Madden, Din Charlz Chapman, Jorj Makki, Mark Strong, Daniel Mays, Adrian Skarborough, Kris Valli, Pep Karter, Andy Apollo, Pol Tinto, Jozef Devis, Billi Postelki--Film Haqida: 1917 yil, Birinchi Jahon urushining balandligi. Ikki yosh askarga halokatli topshiriq berilgan. Ular dushman hududidan o'tib, yuzlab askarlarning muqarrar o'limiga yo'l qo'ymaydigan maxfiy xabarni etkazishlari kerak ...--Videoning sifati: WEBRip
Video format: MKV-Video: Xvid 720x304 23.97fps 2 142 kb/s
Audio: AAC 44000Hz stereo O'zbek tili
Audio 2: AAC 48000Hz stereo Rus tili
Audio 3: AAC 48000Hz stereo Ing tili
Subtitrlar: Rus va ingliz tilida --

Media Info

General
Unique ID : 29479891001716502564285580438545164679 (0x162D9ED805DC5860310BEF629C58E987)
Complete name : K:\MEDIA\HD MOVIES\TARJIMA HD x264 x265\2019-2020\1917.2019.WEBRip.by.MUAH.mkv
Format : Matroska
Format version : Version 4
File size : 2.32 GiB
Duration : 1 h 58 min
Overall bit rate : 2 787 kb/s
Encoded date : UTC 2020-01-30 06:50:17
Writing application : mkvmerge v21.0.0 ('Tardigrades Will Inherit The Earth') 64-bit
Writing library : libebml v1.3.5 + libmatroska v1.4.8
Video
ID : 1
Format : MPEG-4 Visual
Format profile : Advanced Simple@L5
Format settings : BVOP1 / Custom Matrix
Format settings, BVOP : 1
Format settings, QPel : No
Format settings, GMC : No warppoints
Format settings, Matrix : Custom
Codec ID : V_MS/VFW/FOURCC / XVID
Codec ID/Hint : XviD
Duration : 1 h 58 min
Bit rate : 2 142 kb/s
Width : 720 pixels
Height : 304 pixels
Display aspect ratio : 2.35:1
Frame rate mode : Constant
Frame rate : 23.976 (23976/1000) FPS
Color space : YUV
Chroma subsampling : 4:2:0
Bit depth : 8 bits
Scan type : Progressive
Compression mode : Lossy
Bits/(Pixel*Frame) : 0.408
Stream size : 1.78 GiB (77%)
Writing library : XviD 73
Default : Yes
Forced : No
Audio #1
ID : 2
Format : AAC LC
Format/Info : Advanced Audio Codec Low Complexity
Codec ID : A_AAC-2
Duration : 1 h 58 min
Bit rate : 192 kb/s
Channel(s) : 2 channels
Channel layout : L R
Sampling rate : 44.1 kHz
Frame rate : 43.066 FPS (1024 SPF)
Compression mode : Lossy
Stream size : 166 MiB (7%)
Title : uzb(MUAH)
Language : Russian
Default : Yes
Forced : Yes
Audio #2
ID : 3
Format : AC-3
Format/Info : Audio Coding 3
Commercial name : Dolby Digital
Codec ID : A_AC3
Duration : 1 h 58 min
Bit rate mode : Constant
Bit rate : 224 kb/s
Channel(s) : 2 channels
Channel layout : L R
Sampling rate : 48.0 kHz
Frame rate : 31.250 FPS (1536 SPF)
Bit depth : 16 bits
Compression mode : Lossy
Stream size : 191 MiB (8%)
Title : rus
Service kind : Complete Main
Default : No
Forced : No
Audio #3
ID : 4
Format : AC-3
Format/Info : Audio Coding 3
Commercial name : Dolby Digital
Codec ID : A_AC3
Duration : 1 h 58 min
Bit rate mode : Constant
Bit rate : 224 kb/s
Channel(s) : 2 channels
Channel layout : L R
Sampling rate : 48.0 kHz
Frame rate : 31.250 FPS (1536 SPF)
Bit depth : 16 bits
Compression mode : Lossy
Stream size : 191 MiB (8%)
Title : uzb
Service kind : Complete Main
Default : No
Forced : No
Text #1
ID : 5
Format : UTF-8
Codec ID : S_TEXT/UTF8
Codec ID/Info : UTF-8 Plain Text
Duration : 10 s 0 ms
Bit rate : 36 b/s
Count of elements : 1
Stream size : 45.0 Bytes (0%)
Title : reliz
Language : Russian
Default : Yes
Forced : Yes
Text #2
ID : 6
Format : UTF-8
Codec ID : S_TEXT/UTF8
Codec ID/Info : UTF-8 Plain Text
Duration : 1 h 48 min
Bit rate : 33 b/s
Count of elements : 814
Stream size : 26.5 KiB (0%)
Title : eng
Default : No
Forced : No
Text #3
ID : 7
Format : UTF-8
Codec ID : S_TEXT/UTF8
Codec ID/Info : UTF-8 Plain Text
Duration : 1 h 46 min
Bit rate : 58 b/s
Count of elements : 837
Stream size : 45.7 KiB (0%)
Title : rus
Default : No
Forced : No
LAVHALAR
Profil ShX

Gr@nd

Jins:
Yigit
Staj:
2 yil 9 oy
Xabarlar:
178

Qayerdan: Jizzax Forish

Taqiq:

Ahmadullo, Taiflashga til ojiz

Mavzu yaratish 02-Fev-2020 22:56 (3 kun o‘tgach)

Iqitibos

Profil ShX

Ahmadullo ®

Jins:
Yigit
Staj:
8 oy 23 kun
Xabarlar:
73
Taqiq:

Gr@nd, yuge unchalikmas)

Mavzu yaratish 04-Fev-2020 18:08 (1 kun 19 soat o‘tgach)

Iqitibos

Profil ShX

N.U.R.I.K.B.E.K

Jins:
Yigit
Staj:
2 yil 8 oy
Xabarlar:
590

Qayerdan: Jizzax. Paxtakor

Taqiq:

Gr@nd, nimani tarflolmayabsiz yordamlashvoramiz }}

Mavzu yaratish 04-Fev-2020 18:24 (16 daqiqa o‘tgach)

Iqitibos

Profil ShX
Xabarlarni ko‘rsatish:    

Hozirgi vaqt: 15-Iyul 12:38

Vaqtlar farqi: UTC + 5



Siz mavzu yaratishingiz mumkin emas
Siz xabarlarga javob qaytarishingiz mumkin emas
Siz o‘z xabarlaringizni tahrirlashingiz mumkin emas
Siz o‘z xabarlaringizni o‘chirishingiz mumkin emas
Siz so‘rovlarda ovoz berishingiz mumkin emas
Siz xabalarga fayllarni biriktirishingiz mumkin emas
Siz fayllarni ko‘chirishingiz mumkin emas