˂
˃
Tarqatmalar statistikasi
Ko‘chirmoqdaman: [ 1 ]
Ko‘chirib bo‘ldim: [ 28 ]
 
     
 
 

N.U.R.I.K.B.E.K ®

Jins:
Yigit
Staj:
2 yil 5 oy
Xabarlar:
590

Qayerdan: Jizzax. Paxtakor

Taqiq:

-Togo | Того | Togo
--Chiqqan yili: 2019
Davlat: AQSH
Janr: Drama
Davomiyligi: 01:53:01
Tarjima: Professional MY5 O'zbek Tilida.--Rejissyor: Erikson Kore.--Rollarda: Uillem Defo, Maykl Grayes, Julianna Nicholson, Kristofer Heyerdal, Maykl Geston, Maykl Mcelhatton, Jeymi Mcshain, Torbjorn Harr, Sean Benson, Stiven Makkarti--Tavsif: Togo iti 1928da (Alaska) difteriya shahrida nom epidemiyasini oldini olishga yordam berdi. Dahshatli ob-havo sharoitlariga qaramay, Togo shahridagi boshqa Sled itlari bilan birgalikda, kasallikning tarqalishini to'xtatgan antitoksin bilan shaharga bir qo'li etkazib bera oldi.--Videoning sifati: WEBRip 720p HEVC
Video format: MKV--Video: H265 1280x640 23.976fps 1 068 kb/s
Audio: MP3 48000Hz stereo 128kbps Uzb--

Media Info

General
Format : Matroska
Format version : Version 4 / Version 2
File size : 968 MiB
Duration : 1 h 53 min
Overall bit rate : 1 197 kb/s
Movie name : PSArips.com | Togo.2019.INTERNAL.720p.WEBRip.2CH.x265.HEVC-PSA
Encoded date : UTC 2020-01-29 22:26:19
Writing application : mkvmerge v15.0.0 ('Duel with the Devil') 64-bit
Writing library : libebml v1.3.5 + libmatroska v1.4.5
Video
ID : 1
Format : HEVC
Format/Info : High Efficiency Video Coding
Format profile : Main@L3.1@Main
Codec ID : V_MPEGH/ISO/HEVC
Duration : 1 h 53 min
Bit rate : 1 068 kb/s
Width : 1 280 pixels
Height : 640 pixels
Display aspect ratio : 2.000
Frame rate mode : Constant
Frame rate : 23.976 (24000/1001) FPS
Color space : YUV
Chroma subsampling : 4:2:0
Bit depth : 8 bits
Bits/(Pixel*Frame) : 0.054
Stream size : 863 MiB (89%)
Default : Yes
Forced : No
Color range : Limited
Color primaries : BT.709
Transfer characteristics : BT.709
Matrix coefficients : BT.709
Audio
ID : 2
Format : MPEG Audio
Format version : Version 1
Format profile : Layer 3
Mode : Joint stereo
Mode extension : MS Stereo
Codec ID : A_MPEG/L3
Codec ID/Hint : MP3
Duration : 1 h 53 min
Bit rate mode : Constant
Bit rate : 128 kb/s
Channel(s) : 2 channels
Sampling rate : 48.0 kHz
Frame rate : 41.667 FPS (1152 SPF)
Compression mode : Lossy
Stream size : 103 MiB (11%)
Title : Uzb
Writing library : LAME3.99.5
Language : Uzbek
Default : Yes
Forced : Yes
LAVHALAR
Profil ShX

Gr@nd

Jins:
Yigit
Staj:
2 yil 6 oy
Xabarlar:
178

Qayerdan: Jizzax Forish

Taqiq:

Qoil

Mavzu yaratish 02-Fev-2020 22:55 (3 kun o‘tgach)

Iqitibos

Profil ShX
Xabarlarni ko‘rsatish:    

Hozirgi vaqt: 07-Apr 02:52

Vaqtlar farqi: UTC + 5



Siz mavzu yaratishingiz mumkin emas
Siz xabarlarga javob qaytarishingiz mumkin emas
Siz o‘z xabarlaringizni tahrirlashingiz mumkin emas
Siz o‘z xabarlaringizni o‘chirishingiz mumkin emas
Siz so‘rovlarda ovoz berishingiz mumkin emas
Siz xabalarga fayllarni biriktirishingiz mumkin emas
Siz fayllarni ko‘chirishingiz mumkin emas