˂
˃
Tarqatmalar statistikasi
Ko‘chirmoqdaman: [ 10 ]
Ko‘chirib bo‘ldim: [ 3 ]
 
     
 
 

UmarShoh ®

Jins:
Yigit
Staj:
2 yil 2 oy
Xabarlar:
430
Taqiq:

-Oq Qamal / Eight Below-- -Chiqqan yili: 2006
Davlat: AQSH
Janr: Dramma, sarguzasht, oilaviy
Davomiyligi: 02:00:24
Tarjima: Professional (Yoshlar telekanali) o'zbek tilida-Rejissyor: Frank Marshall
Rollarda: Paul Walker, Moon Bloodgood, Bruce Greenwood, Jason Biggs, Wendy Crewson, Gerard Plunket, August Schellenberg,
Belinda Mets, Connor Christopher Levins, Duncan Fraser, Dan Ziski, Michael David Sims, Malcolm Stewart, Damon Johnson, Richard Sons, Richard.-Tavsif:
Tavsif: Film Antarktidaning keng hududlarida suratga olingan. Uning yaqin do'sti Kuper va
geolog Jerri Shepardni o'z ichiga olgan ilmiy ekspeditsiya meteoritni qidirish uchun yo'lga chiqdi.
Biroq, kutilmagan voqea va ob-havoning og'ir sharoitlari ularni it guruhlarini tashlab, orqaga qaytishga majbur qilmoqda.
Va endi sakkizta it olti oy davomida muzli cho'lda omon qolish uchun kurashishlari va ularning qutqarilishini kutishlari kerak...-Videoning sifati: BDRip HEVC 1080p 10 bit
Video format: MKV
Video: HEVC 1920x8000 23.976fps 2819 Kbps
Audio #1: MP3, 48000Hz stereo 2ch 128 Kbps O'zbek tilida
Audio #2: AAC LC, 8 ch, 464 kbps, 48.0 kHz Inglizcha-

MediaInfo


General
Format : Matroska
Format version : Version 4
File size : 2.89 GiB
Duration : 2 h 1 min
Overall bit rate : 3 409 kb/s
Movie name : Eight Below 2006 (1080p BluRay x265 clearFoster)
Encoded date : UTC 2020-01-29 18:30:01
Writing application : mkvmerge v43.0.0 ('The Quartermaster') 64-bit
Writing library : libebml v1.3.10 + libmatroska v1.5.2
Cover : Yes
Attachments : cover.jpeg
Writing frontend : cFstr
Video
ID : 1
Format : HEVC
Format/Info : High Efficiency Video Coding
Format profile : Main 10@L4.1@High
Codec ID : V_MPEGH/ISO/HEVC
Duration : 2 h 0 min
Bit rate : 2 819 kb/s
Width : 1 920 pixels
Height : 800 pixels
Display aspect ratio : 2.40:1
Frame rate mode : Constant
Frame rate : 23.976 (24000/1001) FPS
Color space : YUV
Chroma subsampling : 4:2:0
Bit depth : 10 bits
Bits/(Pixel*Frame) : 0.077
Stream size : 2.37 GiB (82%)
Default : Yes
Forced : No
Color range : Limited
Color primaries : BT.709
Transfer characteristics : BT.709
Matrix coefficients : BT.709
Audio #1
ID : 2
Format : AAC LC
Format/Info : Advanced Audio Codec Low Complexity
Codec ID : A_AAC-2
Duration : 2 h 1 min
Bit rate : 464 kb/s
Channel(s) : 6 channels
Channel layout : C L R Ls Rs LFE
Sampling rate : 48.0 kHz
Frame rate : 46.875 FPS (1024 SPF)
Compression mode : Lossy
Delay relative to video : 20 ms
Stream size : 403 MiB (14%)
Language : English
Default : Yes
Forced : No
Audio #2
ID : 3
Format : MPEG Audio
Format version : Version 1
Format profile : Layer 3
Format settings : Joint stereo
Codec ID : A_MPEG/L3
Codec ID/Hint : MP3
Duration : 2 h 1 min
Bit rate mode : Constant
Bit rate : 128 kb/s
Channel(s) : 2 channels
Sampling rate : 44.1 kHz
Frame rate : 38.281 FPS (1152 SPF)
Compression mode : Lossy
Stream size : 111 MiB (4%)
Title : Yoshlar (UmarShoh_FL)
Writing library : LAME3.99.5
Language : Uzbek
Default : No
Forced : No
Text #1
ID : 4
Format : PGS
Muxing mode : zlib
Codec ID : S_HDMV/PGS
Codec ID/Info : Picture based subtitle format used on BDs/HD-DVDs
Duration : 1 h 51 min
Bit rate : 17.7 kb/s
Count of elements : 1894
Stream size : 14.1 MiB (0%)
Language : English
Default : Yes
Forced : No
Text #2
ID : 5
Format : PGS
Muxing mode : zlib
Codec ID : S_HDMV/PGS
Codec ID/Info : Picture based subtitle format used on BDs/HD-DVDs
Duration : 1 h 54 min
Bit rate : 26.3 kb/s
Count of elements : 1978
Stream size : 21.5 MiB (1%)
Language : Arabic
Default : No
Forced : No
Profil ShX
Xabarlarni ko‘rsatish:    

Hozirgi vaqt: 01-Iyun 20:21

Vaqtlar farqi: UTC + 5



Siz mavzu yaratishingiz mumkin emas
Siz xabarlarga javob qaytarishingiz mumkin emas
Siz o‘z xabarlaringizni tahrirlashingiz mumkin emas
Siz o‘z xabarlaringizni o‘chirishingiz mumkin emas
Siz so‘rovlarda ovoz berishingiz mumkin emas
Siz xabalarga fayllarni biriktirishingiz mumkin emas
Siz fayllarni ko‘chirishingiz mumkin emas