˂
˃
Tarqatmalar statistikasi
Ko‘chirmoqdaman: [ 14 ]
Ko‘chirib bo‘ldim: [ 28 ]
 
     
 
 

Ahmadullo ®

Jins:
Yigit
Staj:
7 oy 13 kun
Xabarlar:
72
Taqiq:

-- Labirintdagilar: Uchligi --Sarlavha : Labirintdagilar: Uchlik
Asl sarlavha: Maze Runner: Trilogy
Chiqarilgan yili: 2014, 2015, 2018,
Janr: fantastika, triller, sarguzasht
Vaqt: 01:53:27 | 02:11:43 | 02:23:52
-

Labirintdagilar 1: Xavfli tuzoq

-Labirintdagilar 1: Xavfli tuzoq --Chiqqan yili: 2014
Davlat: AQSh
Janr: Fantastika,Triller,Sarguzasht
Davomiyligi: 01:53:27
Tarjima: Professional MY5 O'zbek tilida
Tarjima 2: Professional (Dublyaj) Rus tilida
Tarjima 3: Professional (Original) Ingliz tilida--Rejissyor: Wes Ball--Rollarda: Dilan O'Breyn, Aml Amin, Key Xong Li, Bleyk Kuper, Tomas Sangster-Tavsif: Bosh qahramon - o'smir Tomas, liftda uyg'onib ketdi, ammo hech narsani eslay olmaydi. U boshqa Yoshlar orasida, tor joyga omon qolish uchun o'rganish hisoblanadi. Har 30 kun yangi bola keldi. uch yil davomida "Shelter" yashayotgan bolalar guruhi. Ular bu erga o'sadi va ular yashaydigan joy atrofidagi labirint chiqish yo'lini topishga harakat qilish muvaffaqiyatsiz boqish. Lekin bir marta komada bir qiz bor ...-Videoning sifati: BDRip 1080p HEVC
Video format: MKV-Video: H265, ~ 5 791 Kbit/s, 1920x800
Audio: O'zbekcha (AAC, 2 ch, 128 Kbit/s)
Audio 2: Ruscha (AC3, 2 ch, 448 Kbit/s)
Audio 3: Inglizcha (AC3, 2 ch, 448 Kbit/s)
Subtitrlar: Ruscha--

Media Info

General
Uchligi\Labirintdagilar.1.Xavfli.tuzoq(2014)1080p.by,Muhammad.Ahmad.mkv
Format : Matroska
Format version : Version 4
File size : 5.46 GiB
Duration : 1 h 53 min
Overall bit rate : 6 886 kb/s
Movie name : Бегущий в Лабиринте (2014): Релиз от Boar
Encoded date : UTC 2019-02-19 14:16:15
Writing application : mkvmerge v21.0.0 ('Tardigrades Will Inherit The Earth') 64-bit
Writing library : libebml v1.3.5 + libmatroska v1.4.8
Cover : Yes
Attachments : cover.jpg
Video
ID : 1
Format : HEVC
Format/Info : High Efficiency Video Coding
Format profile : Main 10@L4.1@High
Codec ID : V_MPEGH/ISO/HEVC
Duration : 1 h 53 min
Bit rate : 5 791 kb/s
Width : 1 920 pixels
Height : 800 pixels
Display aspect ratio : 2.40:1
Frame rate mode : Constant
Frame rate : 23.976 (24000/1001) FPS
Color space : YUV
Chroma subsampling : 4:2:0
Bit depth : 10 bits
Bits/(Pixel*Frame) : 0.157
Stream size : 4.59 GiB (84%)
Language : English
Default : Yes
Forced : No
Color range : Limited
Color primaries : BT.709
Transfer characteristics : BT.709
Matrix coefficients : BT.709
Audio #1
ID : 2
Format : AAC LC
Format/Info : Advanced Audio Codec Low Complexity
Codec ID : A_AAC-2
Duration : 1 h 53 min
Bit rate : 192 kb/s
Channel(s) : 2 channels
Channel layout : L R
Sampling rate : 44.1 kHz
Frame rate : 43.066 FPS (1024 SPF)
Compression mode : Lossy
Stream size : 159 MiB (3%)
Default : Yes
Forced : Yes
Audio #2
ID : 3
Format : AC-3
Format/Info : Audio Coding 3
Commercial name : Dolby Digital
Codec ID : A_AC3
Duration : 1 h 53 min
Bit rate mode : Constant
Bit rate : 448 kb/s
Channel(s) : 6 channels
Channel layout : L R C LFE Ls Rs
Sampling rate : 48.0 kHz
Frame rate : 31.250 FPS (1536 SPF)
Bit depth : 16 bits
Compression mode : Lossy
Stream size : 364 MiB (7%)
Title : Русский (Дубляж)
Service kind : Complete Main
Default : No
Forced : No
Audio #3
ID : 4
Format : AC-3
Format/Info : Audio Coding 3
Commercial name : Dolby Digital
Codec ID : A_AC3
Duration : 1 h 53 min
Bit rate mode : Constant
Bit rate : 448 kb/s
Channel(s) : 6 channels
Channel layout : L R C LFE Ls Rs
Sampling rate : 48.0 kHz
Frame rate : 31.250 FPS (1536 SPF)
Bit depth : 16 bits
Compression mode : Lossy
Stream size : 364 MiB (7%)
Title : Английский (Оригинал)
Service kind : Complete Main
Default : No
Forced : No
Text #1
ID : 5
Format : UTF-8
Codec ID : S_TEXT/UTF8
Codec ID/Info : UTF-8 Plain Text
Duration : 10 s 0 ms
Bit rate : 36 b/s
Count of elements : 1
Stream size : 45.0 Bytes (0%)
Default : Yes
Forced : Yes
Text #2
ID : 6
Format : UTF-8
Codec ID : S_TEXT/UTF8
Codec ID/Info : UTF-8 Plain Text
Duration : 1 h 45 min
Bit rate : 63 b/s
Count of elements : 1211
Stream size : 49.0 KiB (0%)
Title : Full
Default : No
Forced : No
LAVHALAR

Labirintdagilar 2: Olov iskanjasida

-Labirintdagilar 2: Olov iskanjasida --Chiqqan yili: 2015
Davlat: AQSh
Janr: Fantastika,jangari,triller
Davomiyligi: 02:11:43
Tarjima: Professional MilliyTv O'zbek tilida
Tarjima 2: Professional (Dublyaj) Rus tilida
Tarjima 3: Professional (Original) Ingliz tilida--Rejissyor: Wes Ball--Rollarda: Dilan O'Brayn, Ki Xong Li, Kaya Skodelario, Tomas Sangster, Dekter Darden--Tavsif: Labirintdan o'tildi, ammo Tomas, Tereza, Minxo va boshqa gliderlar dam olishga majbur emaslar. POROKning sirli rahbarligi - tirik qolish uchun poyga uyushtirgan maxfiy tashkilot yigitlarga yangi xavfli sinovlarni tayinlaydi. Bu safar ular issiq cho'ldan o'tishni va zo'ravonlik va oldindan aytib bo'lmaydigan xatti-harakatlar bilan ajralib turadigan davolab bo'lmaydigan kasallik qurbonlari bilan uchrashishni kutmoqdalar.-Videoning sifati: BDRip 1080p HEVC
Video format: MKV-Video: H265, 4 833 Kbit/s, 1920x800
Audio: O'zbekcha (AAC, 2 ch, 128 Kbit/s)
Audio 2: Ruscha (AC3, 2 ch, 448 Kbit/s)
Audio 3: Inglizcha (AC3, 2 ch, 448 Kbit/s)
Subtitrlar: Ruscha--

Media Info

General
Format : Matroska
Format version : Version 4
File size : 5.45 GiB
Duration : 2 h 11 min
Overall bit rate : 5 928 kb/s
Movie name : Бегущий в лабиринте - Испытание огнём (2015): Релиз от Boar
Encoded date : UTC 2020-01-29 07:39:29
Writing application : mkvmerge v21.0.0 ('Tardigrades Will Inherit The Earth') 64-bit
Writing library : libebml v1.3.5 + libmatroska v1.4.8
Cover : Yes
Attachments : cover2.jpg
Video
ID : 1
Format : HEVC
Format/Info : High Efficiency Video Coding
Format profile : Main 10@L4.1@High
Codec ID : V_MPEGH/ISO/HEVC
Duration : 2 h 11 min
Bit rate : 4 833 kb/s
Width : 1 920 pixels
Height : 800 pixels
Display aspect ratio : 2.40:1
Frame rate mode : Constant
Frame rate : 23.976 (24000/1001) FPS
Color space : YUV
Chroma subsampling : 4:2:0
Bit depth : 10 bits
Bits/(Pixel*Frame) : 0.131
Stream size : 4.45 GiB (82%)
Default : Yes
Forced : No
Color range : Limited
Color primaries : BT.709
Transfer characteristics : BT.709
Matrix coefficients : BT.709
Audio #1
ID : 2
Format : AAC LC
Format/Info : Advanced Audio Codec Low Complexity
Codec ID : A_AAC-2
Duration : 2 h 11 min
Bit rate : 192 kb/s
Channel(s) : 2 channels
Channel layout : L R
Sampling rate : 44.1 kHz
Frame rate : 43.066 FPS (1024 SPF)
Compression mode : Lossy
Stream size : 184 MiB (3%)
Title : uzb(MUAH)MilliyTV
Language : Russian
Default : Yes
Forced : Yes
Audio #2
ID : 3
Format : AC-3
Format/Info : Audio Coding 3
Commercial name : Dolby Digital
Codec ID : A_AC3
Duration : 2 h 11 min
Bit rate mode : Constant
Bit rate : 448 kb/s
Channel(s) : 6 channels
Channel layout : L R C LFE Ls Rs
Sampling rate : 48.0 kHz
Frame rate : 31.250 FPS (1536 SPF)
Bit depth : 16 bits
Compression mode : Lossy
Stream size : 422 MiB (8%)
Title : Русский (Дубляж)
Language : Russian
Service kind : Complete Main
Default : No
Forced : No
Audio #3
ID : 4
Format : AC-3
Format/Info : Audio Coding 3
Commercial name : Dolby Digital
Codec ID : A_AC3
Duration : 2 h 11 min
Bit rate mode : Constant
Bit rate : 448 kb/s
Channel(s) : 6 channels
Channel layout : L R C LFE Ls Rs
Sampling rate : 48.0 kHz
Frame rate : 31.250 FPS (1536 SPF)
Bit depth : 16 bits
Compression mode : Lossy
Stream size : 422 MiB (8%)
Title : Английский (Оригинал)
Language : English
Service kind : Complete Main
Default : No
Forced : No
Text #1
ID : 5
Format : UTF-8
Codec ID : S_TEXT/UTF8
Codec ID/Info : UTF-8 Plain Text
Duration : 10 s 0 ms
Bit rate : 36 b/s
Count of elements : 1
Stream size : 45.0 Bytes (0%)
Title : reliz
Language : Russian
Default : Yes
Forced : Yes
Text #2
ID : 6
Format : UTF-8
Codec ID : S_TEXT/UTF8
Codec ID/Info : UTF-8 Plain Text
Duration : 1 h 19 min
Bit rate : 0 b/s
Count of elements : 7
Stream size : 230 Bytes (0%)
Title : Forced
Language : Russian
Default : No
Forced : Yes
Text #3
ID : 7
Format : UTF-8
Codec ID : S_TEXT/UTF8
Codec ID/Info : UTF-8 Plain Text
Duration : 2 h 10 min
Bit rate : 59 b/s
Count of elements : 1494
Stream size : 56.4 KiB (0%)
Title : Full
Language : Russian
Default : No
Forced : No
LAVHALAR

Labirintdagilar 3: O'limga qarshi

-Labirintdagilar 3: O'limga qarshi --Chiqqan yili: 2018
Davlat: AQSh
Janr: Fantastika,jangari,triller
Davomiyligi: 02:23:52
Tarjima: Professional MY5 O'zbek tilida
Tarjima 2: Professional (Dublyaj) Rus tilida
Tarjima 3: Professional (Original) Ingliz tilida--Rejissyor: Wes Ball--Rollarda: Dilan O'Brayn, Ki Xong Li, Kaya Skodelario, Uill Poulter, Tomas Brodi Sangster-Tavsif: Tomas, omon qolgan gliderlar guruhini oxirgi va eng xavfli vazifani bajarish uchun olib boradi. Do'stlarini saqlab qolish uchun ular PORT tomonidan boshqariladigan halokatli labirint afsonaviy Last City-ga kirishlari kerak. U erda tirik qolgan har bir kishi, nihoyat, labirintga tushgandan boshlab, barcha savollarga javob oladi.--Videoning sifati: BDRip 1080p HEVC
Video format: MKV
Video: HEVC/H265, ~ 1 647 Kbit/s, 1920x800
Audio: O'zbekcha (AAC, 2 ch, 128 Kbit/s)
Audio 2: Ruscha (AC3, 2 ch, 448 Kbit/s)
Audio 3: Inglizcha (AC3, 2 ch, 448 Kbit/s)
Subtitrlar: Ruscha--

Media Info

General
Format : Matroska
Format version : Version 4
File size : 2.43 GiB
Duration : 2 h 23 min
Overall bit rate : 2 421 kb/s
Movie name : Maze Runner: The Death Cure 2018 1080p BluRay x265 HEVC 6CH-MRN
Encoded date : UTC 2018-07-10 14:23:43
Writing application : mkvmerge v19.0.0 ('Brave Captain') 64-bit
Writing library : libebml v1.3.5 + libmatroska v1.4.8
Cover : Yes
Attachments : cover.jpg
Video
ID : 1
Format : HEVC
Format/Info : High Efficiency Video Coding
Format profile : Main@L4.1@Main
Codec ID : V_MPEGH/ISO/HEVC
Duration : 2 h 23 min
Bit rate : 1 647 kb/s
Width : 1 920 pixels
Height : 800 pixels
Display aspect ratio : 2.40:1
Frame rate mode : Constant
Frame rate : 23.976 (24000/1001) FPS
Color space : YUV
Chroma subsampling : 4:2:0
Bit depth : 8 bits
Bits/(Pixel*Frame) : 0.045
Stream size : 1.65 GiB (68%)
Default : Yes
Forced : No
Audio #1
ID : 2
Format : AAC LC
Format/Info : Advanced Audio Codec Low Complexity
Codec ID : A_AAC-2
Duration : 2 h 23 min
Bit rate : 192 kb/s
Channel(s) : 2 channels
Channel layout : L R
Sampling rate : 44.1 kHz
Frame rate : 43.066 FPS (1024 SPF)
Compression mode : Lossy
Stream size : 201 MiB (8%)
Language : Uzbek
Default : Yes
Forced : Yes
Audio #2
ID : 3
Format : AC-3
Format/Info : Audio Coding 3
Commercial name : Dolby Digital
Codec ID : A_AC3
Duration : 2 h 23 min
Bit rate mode : Constant
Bit rate : 192 kb/s
Channel(s) : 2 channels
Channel layout : L R
Sampling rate : 48.0 kHz
Frame rate : 31.250 FPS (1536 SPF)
Bit depth : 16 bits
Compression mode : Lossy
Stream size : 198 MiB (8%)
Title : rus
Service kind : Complete Main
Default : No
Forced : No
Audio #3
ID : 4
Format : AAC LC SBR
Format/Info : Advanced Audio Codec Low Complexity with Spectral Band Replication
Commercial name : HE-AAC
Format settings : Explicit
Codec ID : A_AAC-2
Duration : 2 h 23 min
Bit rate : 384 kb/s
Channel(s) : 6 channels
Channel layout : C L R Ls Rs LFE
Sampling rate : 48.0 kHz
Frame rate : 23.438 FPS (2048 SPF)
Compression mode : Lossy
Delay relative to video : 31 ms
Stream size : 395 MiB (16%)
Title : eng
Default : No
Forced : No
Text #1
ID : 5
Format : UTF-8
Codec ID : S_TEXT/UTF8
Codec ID/Info : UTF-8 Plain Text
Duration : 10 s 0 ms
Bit rate : 36 b/s
Count of elements : 1
Stream size : 45.0 Bytes (0%)
Default : Yes
Forced : Yes
Text #2
ID : 6
Format : ASS
Codec ID : S_TEXT/ASS
Codec ID/Info : Advanced Sub Station Alpha
Duration : 25 s 0 ms
Bit rate : 21 b/s
Count of elements : 1
Compression mode : Lossless
Stream size : 67.0 Bytes (0%)
Default : No
Forced : No
LAVHALAR
Profil ShX

Vampire_1987

Jins:
Ko‘rsatilmagan
Staj:
2 yil 9 oy
Xabarlar:
135
Taqiq:

Ahmadullo, Aka bu relizni tarqatib yuborasizmi? man ko'chiryotuvdim.

Mavzu yaratish 05-Mar-2020 16:53 (1 oy 6 kun o‘tgach)

Iqitibos

Profil ShX

Ahmadullo ®

Jins:
Yigit
Staj:
7 oy 13 kun
Xabarlar:
72
Taqiq:

Vampire_1987, hop

Mavzu yaratish 13-Mar-2020 02:26 (7 kun o‘tgach)

Iqitibos

Profil ShX
Xabarlarni ko‘rsatish:    

Hozirgi vaqt: 05-Iyun 18:17

Vaqtlar farqi: UTC + 5



Siz mavzu yaratishingiz mumkin emas
Siz xabarlarga javob qaytarishingiz mumkin emas
Siz o‘z xabarlaringizni tahrirlashingiz mumkin emas
Siz o‘z xabarlaringizni o‘chirishingiz mumkin emas
Siz so‘rovlarda ovoz berishingiz mumkin emas
Siz xabalarga fayllarni biriktirishingiz mumkin emas
Siz fayllarni ko‘chirishingiz mumkin emas