˂
˃
Tarqatmalar statistikasi
Ko‘chirmoqdaman: [ 2 ]
Ko‘chirib bo‘ldim: [ 25 ]
 
     
 
 

UmarShoh ®

Jins:
Yigit
Staj:
2 yil 2 oy
Xabarlar:
430
Taqiq:

-Yaxshi bo'lish osonmi?(1,2,3 + Minionlar) / Гадкий Я (1,2,3 + Миньоны) / Despicable Me (1,2,3 + Minions)-- -Yaxshi bo'lish osonmi?(1,2,3 + Minionlar) / Despicable Me (1,2,3 + Minions)Chiqqan sanasi: 2010, 2013, 2015, 2017.
Davlat: AQSH.
Janr: Multfilm, komediya, oilaviy.
Davomiyligi: 01:34:48 | 01:37:58 | 01:29:40 | 01:30:58
-

Yaxshi bo'lish osonmi?/ Гадкий Я / Despicable Me (2010)

-Chiqqan yili: 2010
Davlat: AQSH
Janr: Multfilm, komediya, oilaviy.
Davomiyligi: 01:34:48
Tarjima: Bolajon
Subtitl: Inglizcha.-Rejissyorlar: Kyle Balda, Pierre Coffan.-Ro'llarni ovozlashtirganlar: Steve Carell, Jason Siegel, Russell Brand, Julie Andrews, Will Arnett, Kristen Wiig, Miranda Cosgrove, Dan Gayer, Elsie Fisher, Pierre Coffan.-Tavsif: Bir shaharda Gru ismli yovuz kimsa bo'ladi.Uning minionlar deb ataluvchi son sanoqsiz yordamchilari bo'lib ular Guru aytgan vazifani doim chippasiga chiqarib bajarishardi. Bir kuni Gru va uning minionlari oyni o'girlashni maqsad qilishadi va ...-Video kodi: BDRip 1080p Hevc 10 bit
Format: MKV
Video: HEVC, 1920x1040, 5496 kbps, 23.976 fps
Ovoz : #1 AC3, 6 ch, 448 kbps | Ruscha
Ovoz : #2 MP3, 2 ch, 128 kbps | O'zbekcha
LAVHALAR

Yaxshi bo'lish osonmi? 2 / Гадкий Я 2 / Despicable Me 2 (2013)

-Chiqqan yili: 2013
Davlat: AQSH
Janr: Multfilm, komediya, oilaviy.
Davomiyligi: 01:37:58
Dublyaj: SevimliTV
Subtitl: Inglizcha.-Rejissyorlar: Kyle Balda, Pierre Coffan.-Ro'llarni ovozlashtirganlar: Steve Carell, Kristen Wiig, Benjamin Bratt, Miranda Cosgrove, Russell Brand, Ken Zhong, Steve Coogan, Elsie Fisher, Dan Gayer, Moises Arias.-Tavsif: Bu safar yovuz Gru o'z yordamchilaridan ayrilgach ularni izlashga tushadi.Tadqiqotlar natijasida minionlarni yovuz yeb to'ymas maxluqqa aylantirgan...-Video kodi: BDRip 1080p Hevc 10 bit
Format: MKV
Video: HEVC, 1920x1036, 3604 kbps, 23.976 fps
Ovoz : #1 AC3, 6 ch, 384 kbps | Original Inglizcha
Ovoz : #2 MP3, 2 ch, 128 kbps | Arabcha
Ovoz : #3 MP3, 2 ch, 128 kbps | O'zbekcha
LAVHALAR

Yaxshi bo'lish osonmi? 3 / Гадкий Я 3 / Despicable Me 3 (2017)

-Chiqqan yili: 2017
Davlat: AQSH
Janr: Multfilm, komediya, oilaviy.
Davomiyligi: 01:29:40
Dublyaj: SevimliTV
Subtitl: Inglizcha.-Rejissyorlar: Kyle Balda, Pierre Coffan.-Ro'llarni ovozlashtirganlar: Steve Carell, Kristen Wiig, Trey Parker, Miranda Cosgrove, Dan Gayer, Neve Charrel, Pierre Coffan, Steve Coogan, Julie Andrews, Jenny Slate.-Tavsif: Bu safar Gru o'z ukasi borligini biladi va uni izlashga boradi.O'z ukasi mallasoch Dru bilan yovuz Bretga qarshi kurashlari avj olib borayotgan bir paytda...-Video kodi: BDRip 1080p Hevc 10 bit
Format: MKV
Video: HEVC, 1920x804, 5217 kbps, 23.976 fps
Ovoz : #1 AC3, 6 ch, 384 kbps | Original Inglizcha
Ovoz : #2 MP3, 2 ch, 128 kbps | Arabcha
Ovoz : #3 MP3, 2 ch, 128 kbps | O'zbekcha
LAVHALAR

Minionlar / Миньоны / Minions (2015)

-Chiqqan yili: 2015
Davlat: AQSH
Janr: Multfilm, komediya, oilaviy.
Davomiyligi: 01:30:58
Dublyaj: SevimliTV
Subtitl: Inglizcha.-Rejissyorlar: Kyle Balda, Pierre Coffan.-Ro'llarni ovozlashtirganlar: Sandra Bullock, John Hamm, Michael Keaton, Allison Jenny, Steve Coogan, Jennifer Saunders, Jeffrey Rush, Steve Carell, Pierre Coffan, Katie Mixon.-Tavsif: Bu safargi hikoyamiz minionlar Gruni uchratmaslaridan ilgari nimalarni boshlaridan o'tkazganlari haqida bo'ladi. O'zlariga xo'jayin izlab har yerda sarson bo'lgan minionlar kunlarning birida...-Video kodi: BDRip 1080p Hevc 10 bit
Format: MKV
Video: HEVC, 1920x1040, 4710 kbps, 23.976 fps
Ovoz : #1 AC3, 6 ch, 740 kbps | Original Inglizcha
Ovoz : #2 MP3, 2 ch, 128 kbps | Arabcha
Ovoz : #3 MP3, 2 ch, 128 kbps | O'zbekcha
LAVHALAR

MediaInfo


General
Unique ID : 315195576837093255276489610884187801804 (0xED2075C10BBFB33F90349E1E8C5DC8CC)
Complete name : D:\Media\Multfilmlar\Multfilmlar\045) Despicable Me 1 [ 2010 BDRip 1080p x265 ] O`zbek tilida.mkv
Format : Matroska
Format version : Version 4
File size : 4.02 GiB
Duration : 1 h 34 min
Overall bit rate : 6 075 kb/s
Movie name : DESPICABLE_ME.Title800
Encoded date : UTC 2020-01-28 05:46:34
Writing application : mkvmerge v43.0.0 ('The Quartermaster') 64-bit
Writing library : libebml v1.3.10 + libmatroska v1.5.2
Cover : Yes
Attachments : cover.jpg
Video
ID : 1
Format : HEVC
Format/Info : High Efficiency Video Coding
Format profile : Main@L4@Main
Codec ID : V_MPEGH/ISO/HEVC
Duration : 1 h 34 min
Bit rate : 5 496 kb/s
Width : 1 920 pixels
Height : 1 040 pixels
Display aspect ratio : 1.85:1
Frame rate mode : Constant
Frame rate : 23.976 (24000/1001) FPS
Color space : YUV
Chroma subsampling : 4:2:0 (Type 1 / Type 63)
Bit depth : 8 bits
Bits/(Pixel*Frame) : 0.115
Stream size : 3.63 GiB (90%)
Default : Yes
Forced : No
Audio #1
ID : 2
Format : AC-3
Format/Info : Audio Coding 3
Commercial name : Dolby Digital
Codec ID : A_AC3
Duration : 1 h 34 min
Bit rate mode : Constant
Bit rate : 448 kb/s
Channel(s) : 6 channels
Channel layout : L R C LFE Ls Rs
Sampling rate : 48.0 kHz
Frame rate : 31.250 FPS (1536 SPF)
Compression mode : Lossy
Stream size : 303 MiB (7%)
Language : Russian
Service kind : Complete Main
Default : Yes
Forced : No
Audio #2
ID : 3
Format : MPEG Audio
Format version : Version 1
Format profile : Layer 3
Format settings : Joint stereo
Codec ID : A_MPEG/L3
Codec ID/Hint : MP3
Duration : 1 h 34 min
Bit rate mode : Constant
Bit rate : 128 kb/s
Channel(s) : 2 channels
Sampling rate : 44.1 kHz
Frame rate : 38.281 FPS (1152 SPF)
Compression mode : Lossy
Stream size : 86.7 MiB (2%)
Title : Bolajon (UmarShoh_FL)
Writing library : LAME3.99.5
Language : Uzbek
Default : No
Forced : No
Profil ShX
Xabarlarni ko‘rsatish:    

Hozirgi vaqt: 01-Iyun 20:10

Vaqtlar farqi: UTC + 5



Siz mavzu yaratishingiz mumkin emas
Siz xabarlarga javob qaytarishingiz mumkin emas
Siz o‘z xabarlaringizni tahrirlashingiz mumkin emas
Siz o‘z xabarlaringizni o‘chirishingiz mumkin emas
Siz so‘rovlarda ovoz berishingiz mumkin emas
Siz xabalarga fayllarni biriktirishingiz mumkin emas
Siz fayllarni ko‘chirishingiz mumkin emas