˂
˃
Tarqatmalar statistikasi
Ko‘chiraman: [ 1 ]
Ko‘chirmoqdaman: [ 2 ]
Ko‘chirib bo‘ldim: [ 11 ]
 
     
 
 

Soft-Release ®

Jins:
Yigit
Staj:
2 yil 2 oy
Xabarlar:
857

Qayerdan: Kattakurgan

Taqiq:

Terminator: Qorong'u Taqdir / Терминатор: Тёмные судьбы / Terminator: Dark Fate -Chiqqan Yili: 2019
Davlat: AQSH, Xitoy
Janr: Fantastika, Jangari,Sarguzasht
Davomiyilgi: 02:08:05
Tarjima: Professional (Ko'p Ovozli) [MY5]-Subtitrlar: Ruscha, Inglizcha-Rejissyor: Tim Miller-Rollarda: Linda Hemilton, Arnold Shvarstneger, Makkenzi Devis, Nataliya Reyes, Gabriel Luna, Diego Boneta, Alisiya Borrachero, Enrike Arse, Stiven Kri, Ferran Fernandes-Tavsif: Sara Konnor terminatorlarning haqiqiy ovchisiga aylandi va endi kelajakdan qotil robotlarni yo'q qilish bilan shug'ullanadi. U eng muhimi, ularga jonga etib borishlariga yo'l qo'ymaslik kerak, deb hisoblaydi, ammo endi Dani Ramos paydo bo'ldi, uning omon qolishi ham insoniyat taqdiriga bog'liq. U bilan birga, sirli qiz Greys, inson va mashina aralashmasi jangga kiradi.
- -Sifat: BDRip 720p HEVC 10bit
Format: MKV (x265)
Video: HEVC, 1031 Kb/s, 1280x536
Audio №1: AAC, 2 ch, 192 Kb/s | UZB
Audio №2: AAC, 6 ch, 223 Kb/s | ENG-

MediaInfo

General
Unique ID : 15296906269205669558101943300097455328 (0xB8213B539C7CB857EC5F56206A234E0)
Complete name : Terminator.Dark.Fate.2019.720p.10bit.BluRay.6CH.x265.HEVC.LIVETOR.UZ.mkv
Format : Matroska
Format version : Version 4
File size : 1.30 GiB
Duration : 2 h 8 min
Overall bit rate : 1 451 kb/s
Movie name : Terminator.Dark.Fate.2019.720p.10bit.BluRay.6CH.x265.HEVC.LIVETOR.UZ
Encoded date : UTC 2020-01-25 18:46:43
Writing application : mkvmerge v38.0.0 ('The Silent Type') 64-bit
Writing library : libebml v1.3.9 + libmatroska v1.5.2
Video
ID : 1
Format : HEVC
Format/Info : High Efficiency Video Coding
Format profile : Main 10@L3.1@Main
Codec ID : V_MPEGH/ISO/HEVC
Duration : 2 h 8 min
Bit rate : 1 031 kb/s
Width : 1 280 pixels
Height : 536 pixels
Display aspect ratio : 2.40:1
Frame rate mode : Constant
Frame rate : 23.976 (24000/1001) FPS
Color space : YUV
Chroma subsampling : 4:2:0
Bit depth : 10 bits
Bits/(Pixel*Frame) : 0.063
Stream size : 944 MiB (71%)
Default : Yes
Forced : No
Audio #1
ID : 2
Format : AAC LC
Format/Info : Advanced Audio Codec Low Complexity
Codec ID : A_AAC-2
Duration : 2 h 8 min
Bit rate : 192 kb/s
Channel(s) : 2 channels
Channel layout : L R
Sampling rate : 44.1 kHz
Frame rate : 43.066 FPS (1024 SPF)
Compression mode : Lossy
Stream size : 179 MiB (13%)
Language : Uzbek
Default : Yes
Forced : No
Audio #2
ID : 3
Format : AAC LC SBR
Format/Info : Advanced Audio Codec Low Complexity with Spectral Band Replication
Commercial name : HE-AAC
Format settings : Explicit
Codec ID : A_AAC-2
Duration : 2 h 8 min
Bit rate : 223 kb/s
Channel(s) : 6 channels
Channel layout : C L R Ls Rs LFE
Sampling rate : 48.0 kHz
Frame rate : 23.438 FPS (2048 SPF)
Compression mode : Lossy
Delay relative to video : 31 ms
Stream size : 204 MiB (15%)
Language : English
Default : No
Forced : No
Text #1
ID : 4
Format : UTF-8
Codec ID : S_TEXT/UTF8
Codec ID/Info : UTF-8 Plain Text
Duration : 10 s 0 ms
Bit rate : 36 b/s
Count of elements : 1
Stream size : 45.0 Bytes (0%)
Language : Russian
Default : No
Forced : No
Text #2
ID : 5
Format : UTF-8
Codec ID : S_TEXT/UTF8
Codec ID/Info : UTF-8 Plain Text
Duration : 1 h 57 min
Bit rate : 31 b/s
Count of elements : 1079
Stream size : 27.3 KiB (0%)
Language : English
Default : No
Forced : No
Text #3
ID : 6
Format : UTF-8
Codec ID : S_TEXT/UTF8
Codec ID/Info : UTF-8 Plain Text
Duration : 1 h 57 min
Bit rate : 39 b/s
Count of elements : 1388
Stream size : 34.3 KiB (0%)
Title : SDH
Language : English
Default : No
Forced : No
Profil ShX

Daymos

Jins:
Yigit
Staj:
2 yil 1 oy
Xabarlar:
15

Qayerdan: Navoiy

Taqiq:

Нима факат HEVC?, бошка форматда тайёрлашни иложи йукми?

Mavzu yaratish 12-Fev-2020 12:53 (17 kun o‘tgach)

Iqitibos

Profil ShX

Soft-Release ®

Jins:
Yigit
Staj:
2 yil 2 oy
Xabarlar:
857

Qayerdan: Kattakurgan

Taqiq:

8964Нима факат HEVC?, бошка форматда тайёрлашни иложи йукми?
Daymos, Bor Qanaqa Formatda Kerak Tayyorlab Beraman! Javobizni Qoldiring

Mavzu yaratish 13-Fev-2020 01:09 (12 soat o‘tgach)

Iqitibos

Profil ShX

SArdor95

Jins:
Ko‘rsatilmagan
Staj:
1 yil 4 oy
Xabarlar:
4
Taqiq:

ko'chirishga yordam bervorilaa

Mavzu yaratish 01-Apr-2020 13:21 (1 oy 17 kun o‘tgach)

Iqitibos

Profil ShX
Xabarlarni ko‘rsatish:    

Hozirgi vaqt: 29-May 05:45

Vaqtlar farqi: UTC + 5



Siz mavzu yaratishingiz mumkin emas
Siz xabarlarga javob qaytarishingiz mumkin emas
Siz o‘z xabarlaringizni tahrirlashingiz mumkin emas
Siz o‘z xabarlaringizni o‘chirishingiz mumkin emas
Siz so‘rovlarda ovoz berishingiz mumkin emas
Siz xabalarga fayllarni biriktirishingiz mumkin emas
Siz fayllarni ko‘chirishingiz mumkin emas