˂
˃
Tarqatmalar statistikasi
Ko‘chiraman: [ 1 ]
Ko‘chirmoqdaman: [ 1 ]
Ko‘chirib bo‘ldim: [ 8 ]
 
     
 
 

Soft-Release ®

Jins:
Yigit
Staj:
1 yil 11 oy
Xabarlar:
856

Qayerdan: Kattakurgan

Taqiq:

Terminator: Qorong'u Taqdir / Терминатор: Тёмные судьбы / Terminator: Dark Fate -Chiqqan Yili: 2019
Davlat: AQSH, Xitoy
Janr: Fantastika, Jangari,Sarguzasht
Davomiyilgi: 02:08:05
Tarjima: Professional (Ko'p Ovozli) [MY5]-Subtitrlar: Ruscha, Inglizcha-Rejissyor: Tim Miller-Rollarda: Linda Hemilton, Arnold Shvarstneger, Makkenzi Devis, Nataliya Reyes, Gabriel Luna, Diego Boneta, Alisiya Borrachero, Enrike Arse, Stiven Kri, Ferran Fernandes-Tavsif: Sara Konnor terminatorlarning haqiqiy ovchisiga aylandi va endi kelajakdan qotil robotlarni yo'q qilish bilan shug'ullanadi. U eng muhimi, ularga jonga etib borishlariga yo'l qo'ymaslik kerak, deb hisoblaydi, ammo endi Dani Ramos paydo bo'ldi, uning omon qolishi ham insoniyat taqdiriga bog'liq. U bilan birga, sirli qiz Greys, inson va mashina aralashmasi jangga kiradi.
- -Sifat: BDRip 1080p HEVC 10bit
Format: MKV (x265)
Video: HEVC, 2422 Kb/s, 1920x808
Audio №1: AAC, 2 ch, 192 Kb/s | UZB
Audio №2: AAC, 8 ch, 288 Kb/s | ENG-

MediaInfo

General
Unique ID : 162340453918446857498083561515159051145 (0x7A21A256E9DD6EF61BF874F4F01ADB89)
Complete name : Terminator.Dark.Fate.2019.1080p.10bit.BluRay.8CH.x265.HEVC.LIVETOR.UZ.mkv
Format : Matroska
Format version : Version 4
File size : 2.60 GiB
Duration : 2 h 8 min
Overall bit rate : 2 908 kb/s
Movie name : Terminator.Dark.Fate.2019.1080p.10bit.BluRay.8CH.x265.HEVC.LIVETOR.UZ
Encoded date : UTC 2020-01-25 18:55:05
Writing application : mkvmerge v38.0.0 ('The Silent Type') 64-bit
Writing library : libebml v1.3.9 + libmatroska v1.5.2
Video
ID : 1
Format : HEVC
Format/Info : High Efficiency Video Coding
Format profile : Main 10@L4@Main
Codec ID : V_MPEGH/ISO/HEVC
Duration : 2 h 8 min
Bit rate : 2 422 kb/s
Width : 1 920 pixels
Height : 808 pixels
Display aspect ratio : 2.40:1
Frame rate mode : Constant
Frame rate : 23.976 (24000/1001) FPS
Color space : YUV
Chroma subsampling : 4:2:0
Bit depth : 10 bits
Bits/(Pixel*Frame) : 0.065
Stream size : 2.17 GiB (83%)
Default : Yes
Forced : No
Audio #1
ID : 2
Format : AAC LC
Format/Info : Advanced Audio Codec Low Complexity
Codec ID : A_AAC-2
Duration : 2 h 8 min
Bit rate : 192 kb/s
Channel(s) : 2 channels
Channel layout : L R
Sampling rate : 44.1 kHz
Frame rate : 43.066 FPS (1024 SPF)
Compression mode : Lossy
Stream size : 179 MiB (7%)
Language : Uzbek
Default : Yes
Forced : No
Audio #2
ID : 3
Format : AAC LC SBR
Format/Info : Advanced Audio Codec Low Complexity with Spectral Band Replication
Commercial name : HE-AAC
Format settings : Explicit
Codec ID : A_AAC-2
Duration : 2 h 8 min
Bit rate : 288 kb/s
Channel(s) : 8 channels
Channel layout : C L R Ls Rs Lb Rb LFE
Sampling rate : 48.0 kHz
Frame rate : 23.438 FPS (2048 SPF)
Compression mode : Lossy
Delay relative to video : 31 ms
Stream size : 264 MiB (10%)
Language : English
Default : No
Forced : No
Text #1
ID : 4
Format : UTF-8
Codec ID : S_TEXT/UTF8
Codec ID/Info : UTF-8 Plain Text
Duration : 10 s 0 ms
Bit rate : 36 b/s
Count of elements : 1
Stream size : 45.0 Bytes (0%)
Title : reliz
Language : Russian
Default : No
Forced : No
Text #2
ID : 5
Format : UTF-8
Codec ID : S_TEXT/UTF8
Codec ID/Info : UTF-8 Plain Text
Duration : 1 h 57 min
Bit rate : 31 b/s
Count of elements : 1079
Stream size : 27.3 KiB (0%)
Language : English
Default : No
Forced : No
Text #3
ID : 6
Format : UTF-8
Codec ID : S_TEXT/UTF8
Codec ID/Info : UTF-8 Plain Text
Duration : 1 h 57 min
Bit rate : 39 b/s
Count of elements : 1388
Stream size : 34.3 KiB (0%)
Title : SDH
Language : English
Default : No
Forced : No
.torrent yuklash

Yuqori tezlikda va bepul ko‘chirish!

Qanday yuklab olinadi? · Torrent nima o‘zi? · Reyting va cheklovlar



So‘ngi marta tahrirlandi: Soft-Release (2020-02-02 01:05), Jami tahrirlangan 3 marta
Profil ShX

ZAFAR-studio

Jins:
Yigit
Staj:
1 yil 7 oy
Xabarlar:
59

Qayerdan: Хоразм вилояти, Урганч шаҳри, "12-сонли Маъшал" маҳалласидан

Taqiq:

Soft-Release, Ассалому алайкум, релиз ва тезлик учун катта рахмат, 5 минутга кўчириб олдим....

Mavzu yaratish 26-Yan-2020 10:18 (9 soat o‘tgach)

Iqitibos

Profil ShX

Soft-Release ®

Jins:
Yigit
Staj:
1 yil 11 oy
Xabarlar:
856

Qayerdan: Kattakurgan

Taqiq:

8921Soft-Release, Ассалому алайкум, релиз ва тезлик учун катта рахмат, 5 минутга кўчириб олдим....
ZAFAR-studio, Assalom Aleykum Xayrli Kun Mansur Aka Arzimaydi Akajon Qo'ldan Kelgancha Kinoni Bir Ochib Ko'rib Sifati Va Ovoz Yo'lagi Tushganmi Yo'qmi Shu Haqida Ikki Og'iz Fikrizdi Aytib O'tsangiz Iltimos Oldindan Katta Rahmat Sizga!

Mavzu yaratish 26-Yan-2020 10:21 (3 daqiqa o‘tgach)

Iqitibos

Profil ShX

ZAFAR-studio

Jins:
Yigit
Staj:
1 yil 7 oy
Xabarlar:
59

Qayerdan: Хоразм вилояти, Урганч шаҳри, "12-сонли Маъшал" маҳалласидан

Taqiq:

Soft-Release, хўп...

Mavzu yaratish 26-Yan-2020 10:28 (7 daqiqa o‘tgach)

Iqitibos

Profil ShX

ZAFAR-studio

Jins:
Yigit
Staj:
1 yil 7 oy
Xabarlar:
59

Qayerdan: Хоразм вилояти, Урганч шаҳри, "12-сонли Маъшал" маҳалласидан

Taqiq:

Soft-Release, кинони кўриб чиқдим, овозлари жойига зўр тушган гап йўқ,яъна бир бора КАТТА РАХМАТ....

Mavzu yaratish 26-Yan-2020 16:42 (6 soat o‘tgach)

Iqitibos

Profil ShX

Soft-Release ®

Jins:
Yigit
Staj:
1 yil 11 oy
Xabarlar:
856

Qayerdan: Kattakurgan

Taqiq:

8924Soft-Release, кинони кўриб чиқдим, овозлари жойига зўр тушган гап йўқ,яъна бир бора КАТТА РАХМАТ....
ZAFAR-studio, Minnatdorman Akajon Sifati Ham Ovozi Ham Yaxshi Chiqqan Bo'lsa Sizlarga Manzur Kelgan Bo'lsa Bo'ldi!

Mavzu yaratish 26-Yan-2020 20:31 (3 soat o‘tgach)

Iqitibos

Profil ShX
Xabarlarni ko‘rsatish:    

Hozirgi vaqt: 25-Fev 21:45

Vaqtlar farqi: UTC + 5



Siz mavzu yaratishingiz mumkin emas
Siz xabarlarga javob qaytarishingiz mumkin emas
Siz o‘z xabarlaringizni tahrirlashingiz mumkin emas
Siz o‘z xabarlaringizni o‘chirishingiz mumkin emas
Siz so‘rovlarda ovoz berishingiz mumkin emas
Siz xabalarga fayllarni biriktirishingiz mumkin emas
Siz fayllarni ko‘chirishingiz mumkin emas