˂
˃
Tarqatmalar statistikasi
Ko‘chirmoqdaman: [ 1 ]
Ko‘chirib bo‘ldim: [ 7 ]
 
     
 
 

Soft-Release ®

Jins:
Yigit
Staj:
2 yil
Xabarlar:
857

Qayerdan: Kattakurgan

Taqiq:

Terminator: Qorong'u Taqdir / Терминатор: Тёмные судьбы / Terminator: Dark Fate -Chiqqan Yili: 2019
Davlat: AQSH, Xitoy
Janr: Fantastika, Jangari,Sarguzasht
Davomiyilgi: 02:08:05
Tarjima: Professional (Ko'p Ovozli) [MY5]-Subtitrlar: Ruscha, Inglizcha-Rejissyor: Tim Miller-Rollarda: Linda Hemilton, Arnold Shvarstneger, Makkenzi Devis, Nataliya Reyes, Gabriel Luna, Diego Boneta, Alisiya Borrachero, Enrike Arse, Stiven Kri, Ferran Fernandes-Tavsif: Sara Konnor terminatorlarning haqiqiy ovchisiga aylandi va endi kelajakdan qotil robotlarni yo'q qilish bilan shug'ullanadi. U eng muhimi, ularga jonga etib borishlariga yo'l qo'ymaslik kerak, deb hisoblaydi, ammo endi Dani Ramos paydo bo'ldi, uning omon qolishi ham insoniyat taqdiriga bog'liq. U bilan birga, sirli qiz Greys, inson va mashina aralashmasi jangga kiradi.
- -Sifat: BDRip 2160p HDR HEVC 10bit
Format: MKV (x265)
Video: HEVC, 2790 Kb/s, 3840x1616
Audio №1: AAC, 2 ch, 192 Kb/s | UZB
Audio №2: AAC, 8 ch, 288 Kb/s | ENG-

MediaInfo

General
Unique ID : 149054908999126915080830777275506782478 (0x7022EE670D0D994D328EA3D0652C710E)
Complete name : Terminator.Dark.Fate.2019.2160p.10bit.HDR.BluRay.8CH.x265.HEVC.LIVETOR.UZ.mkv
Format : Matroska
Format version : Version 4
File size : 2.93 GiB
Duration : 2 h 8 min
Overall bit rate : 3 276 kb/s
Movie name : Terminator.Dark.Fate.2019.2160p.10bit.HDR.BluRay.8CH.x265.HEVC.LIVETOR.UZ
Encoded date : UTC 2020-01-25 19:00:26
Writing application : mkvmerge v38.0.0 ('The Silent Type') 64-bit
Writing library : libebml v1.3.9 + libmatroska v1.5.2
Cover : Yes
Attachments : small_cover.jpg / small_cover_land.jpg / cover.jpg / cover_land.jpg / cover.jpg
Video
ID : 1
Format : HEVC
Format/Info : High Efficiency Video Coding
Format profile : Main 10@L5@Main
HDR format : SMPTE ST 2086, HDR10 compatible
Codec ID : V_MPEGH/ISO/HEVC
Duration : 2 h 8 min
Bit rate : 2 790 kb/s
Width : 3 840 pixels
Height : 1 616 pixels
Display aspect ratio : 2.40:1
Frame rate mode : Constant
Frame rate : 23.976 (24000/1001) FPS
Color space : YUV
Chroma subsampling : 4:2:0
Bit depth : 10 bits
Bits/(Pixel*Frame) : 0.019
Stream size : 2.50 GiB (85%)
Default : Yes
Forced : No
Color range : Limited
Color primaries : BT.2020
Transfer characteristics : PQ
Matrix coefficients : BT.2020 non-constant
Mastering display color pri : Display P3
Mastering display luminance : min: 0.0001 cd/m2, max: 1000 cd/m2
Maximum Content Light Level : 1000 cd/m2
Maximum Frame-Average Light : 446 cd/m2
Audio #1
ID : 2
Format : AAC LC
Format/Info : Advanced Audio Codec Low Complexity
Codec ID : A_AAC-2
Duration : 2 h 8 min
Bit rate : 192 kb/s
Channel(s) : 2 channels
Channel layout : L R
Sampling rate : 44.1 kHz
Frame rate : 43.066 FPS (1024 SPF)
Compression mode : Lossy
Stream size : 179 MiB (6%)
Language : Uzbek
Default : Yes
Forced : No
Audio #2
ID : 3
Format : AAC LC SBR
Format/Info : Advanced Audio Codec Low Complexity with Spectral Band Replication
Commercial name : HE-AAC
Format settings : Explicit
Codec ID : A_AAC-2
Duration : 2 h 8 min
Bit rate : 288 kb/s
Channel(s) : 8 channels
Channel layout : C L R Ls Rs Lb Rb LFE
Sampling rate : 48.0 kHz
Frame rate : 23.438 FPS (2048 SPF)
Compression mode : Lossy
Delay relative to video : 31 ms
Stream size : 264 MiB (9%)
Language : English
Default : No
Forced : No
Text #1
ID : 4
Format : UTF-8
Codec ID : S_TEXT/UTF8
Codec ID/Info : UTF-8 Plain Text
Duration : 10 s 0 ms
Bit rate : 36 b/s
Count of elements : 1
Stream size : 45.0 Bytes (0%)
Language : Russian
Default : No
Forced : No
Text #2
ID : 5
Format : UTF-8
Codec ID : S_TEXT/UTF8
Codec ID/Info : UTF-8 Plain Text
Duration : 1 h 57 min
Bit rate : 31 b/s
Count of elements : 1078
Stream size : 27.2 KiB (0%)
Language : English
Default : No
Forced : No
Text #3
ID : 6
Format : UTF-8
Codec ID : S_TEXT/UTF8
Codec ID/Info : UTF-8 Plain Text
Duration : 1 h 57 min
Bit rate : 39 b/s
Count of elements : 1387
Stream size : 34.3 KiB (0%)
Title : SDH
Language : English
Default : No
Forced : No
Profil ShX
Xabarlarni ko‘rsatish:    

Hozirgi vaqt: 07-Apr 02:07

Vaqtlar farqi: UTC + 5



Siz mavzu yaratishingiz mumkin emas
Siz xabarlarga javob qaytarishingiz mumkin emas
Siz o‘z xabarlaringizni tahrirlashingiz mumkin emas
Siz o‘z xabarlaringizni o‘chirishingiz mumkin emas
Siz so‘rovlarda ovoz berishingiz mumkin emas
Siz xabalarga fayllarni biriktirishingiz mumkin emas
Siz fayllarni ko‘chirishingiz mumkin emas