˂
˃
Tarqatmalar statistikasi
Ko‘chirib bo‘ldim: [ 8 ]
 
     
 
 

Ahmadullo ®

Jins:
Yigit
Staj:
7 oy 11 kun
Xabarlar:
72
Taqiq:

Robotlar | Роботы | Robots
--Chiqqan yili: 2005
Davlat: AQSH
Janr: Fantastika
Davomiyligi: 01:29:48
Tarjima: Professional O'zbek tilida
Tarjima 2: Professional (Dublyaj) Rus tilida
Tarjima 3: Professional (Original) Ingliz tilida--Rejissyor: Carlos Saldanha--Rollarda: Evan MakGregor, Xolli Berri, Mel Broks, Stenli Tuchchi, Diane Uist, Jim Broadbent--Film Haqida: Bu yerda faqat robotlar yashaydigan dunyo. Odamlar dunyosida bo'lgani kabi, ular o'zlarining ijtimoiy zinapoyalari, qahramonlari va tashqi ko'rinishlariga ega. Yosh daho Rodney robotlar dunyosini yaxshilamoqchi. Va u, albatta, bitta yosh sexy cappie robotini yaxshi ko'radi. Ammo uning barcha rejalari yo'lida etakchi robot-dizayner Big Weld, u Kappi sinfiga mansub ...--Videoning sifati: BDRip 720p
Video format: MKV-Video: MPEG4 Video (H264) 1280x688 23.976fps 2 904 kb/s
Audio: AAC 44000Hz stereo O'zbek tili
Audio 2: AAC-LC 48000Hz 6ch Rus tili
Audio 2: AAC-LC 48000Hz 6ch Ingliz tili
Subtitrlar: Ingliz tili--

Media Info

General
Unique ID : 309778354725910151513405893840050705063 (0xE90D24153B3774625513EDD49E81D2A7)
Complete name : K:\MEDIA\HD MOVIES\TARJIMA HD x264 x265\2019-2020\Robotlar.2005.BDrip.Uzb.Eng.Rus.mkv
Format : Matroska
Format version : Version 4
File size : 2.31 GiB
Duration : 1 h 29 min
Overall bit rate : 3 681 kb/s
Encoded date : UTC 2020-01-04 13:17:36
Writing application : mkvmerge v21.0.0 ('Tardigrades Will Inherit The Earth') 64-bit
Writing library : libebml v1.3.5 + libmatroska v1.4.8
Video
ID : 1
Format : AVC
Format/Info : Advanced Video Codec
Format profile : High@L4.1
Format settings : CABAC / 9 Ref Frames
Format settings, CABAC : Yes
Format settings, Reference fra : 9 frames
Codec ID : V_MPEG4/ISO/AVC
Duration : 1 h 29 min
Bit rate : 2 904 kb/s
Width : 1 280 pixels
Height : 688 pixels
Display aspect ratio : 1.85:1
Frame rate mode : Constant
Frame rate : 23.976 (24000/1001) FPS
Color space : YUV
Chroma subsampling : 4:2:0
Bit depth : 8 bits
Scan type : Progressive
Bits/(Pixel*Frame) : 0.138
Stream size : 1.82 GiB (79%)
Title : BDRip-AVC.720p.by.dstoha
Writing library : x264 core 84 r1416kMod fcf70c2
Encoding settings : cabac=1 / ref=9 / deblock=1:-1:-1 / analyse=0x3:0x113 / me=umh / subme=7 / psy=1 / psy_rd=0.4:0.0 / mixed_ref=1 / me_range=24 / chroma_me=1 / trellis=2 / 8x8dct=1 / cqm=0 / deadzone=21,11 / fast_pskip=0 / chroma_qp_offset=-3 / threads=6 / sliced_threads=0 / nr=0 / decimate=1 / mbaff=0 / constrained_intra=0 / bframes=5 / b_pyramid=0 / b_adapt=2 / b_bias=0 / direct=1 / wpredb=1 / wpredp=2 / keyint=250 / keyint_min=25 / scenecut=40 / intra_refresh=0 / rc_lookahead=40 / rc=crf / mbtree=1 / crf=18.5000 / qcomp=0.60 / qpmin=10 / qpmax=51 / qpstep=4 / vbv_maxrate=50000 / vbv_bufsize=62500 / ip_ratio=1.40 / aq=1:0.60 / zones=120330,129174,b=0.4
Language : English
Default : No
Forced : No
Audio #1
ID : 2
Format : AAC LC
Format/Info : Advanced Audio Codec Low Complexity
Codec ID : A_AAC-2
Duration : 1 h 29 min
Bit rate : 192 kb/s
Channel(s) : 2 channels
Channel layout : L R
Sampling rate : 44.1 kHz
Frame rate : 43.066 FPS (1024 SPF)
Compression mode : Lossy
Stream size : 125 MiB (5%)
Title : uzb(MuAh)
Language : Russian
Default : Yes
Forced : Yes
Audio #2
ID : 3
Format : AAC LC
Format/Info : Advanced Audio Codec Low Complexity
Codec ID : A_AAC-2
Duration : 1 h 29 min
Bit rate : 328 kb/s
Channel(s) : 6 channels
Channel layout : C L R Ls Rs LFE
Sampling rate : 48.0 kHz
Frame rate : 46.875 FPS (1024 SPF)
Compression mode : Lossy
Stream size : 211 MiB (9%)
Title : AAC-LC 6ch 48kHz VBR ~328kbps q=0.40
Language : Russian
Default : No
Forced : No
Audio #3
ID : 4
Format : AAC LC
Format/Info : Advanced Audio Codec Low Complexity
Codec ID : A_AAC-2
Duration : 1 h 29 min
Bit rate : 250 kb/s
Channel(s) : 6 channels
Channel layout : C L R Ls Rs LFE
Sampling rate : 48.0 kHz
Frame rate : 46.875 FPS (1024 SPF)
Compression mode : Lossy
Stream size : 161 MiB (7%)
Title : AAC-LC 6ch 48kHz VBR ~250kbps q=0.34
Language : English
Default : No
Forced : No
Text #1
ID : 5
Format : UTF-8
Codec ID : S_TEXT/UTF8
Codec ID/Info : UTF-8 Plain Text
Duration : 10 s 0 ms
Bit rate : 36 b/s
Count of elements : 1
Stream size : 45.0 Bytes (0%)
Title : reliz
Default : Yes
Forced : Yes
Text #2
ID : 6
Format : UTF-8
Codec ID : S_TEXT/UTF8
Codec ID/Info : UTF-8 Plain Text
Duration : 1 h 22 min
Bit rate : 58 b/s
Count of elements : 1013
Stream size : 35.5 KiB (0%)
Title : english
Default : No
Forced : No
LAVHALAR
Profil ShX
Xabarlarni ko‘rsatish:    

Hozirgi vaqt: 04-Iyun 03:18

Vaqtlar farqi: UTC + 5



Siz mavzu yaratishingiz mumkin emas
Siz xabarlarga javob qaytarishingiz mumkin emas
Siz o‘z xabarlaringizni tahrirlashingiz mumkin emas
Siz o‘z xabarlaringizni o‘chirishingiz mumkin emas
Siz so‘rovlarda ovoz berishingiz mumkin emas
Siz xabalarga fayllarni biriktirishingiz mumkin emas
Siz fayllarni ko‘chirishingiz mumkin emas