˂
˃
Tarqatmalar statistikasi
Ko‘chiraman: [ 1 ]
Ko‘chirmoqdaman: [ 3 ]
Ko‘chirib bo‘ldim: [ 24 ]
 
     
 
 

Ahmadullo ®

Jins:
Yigit
Staj:
7 oy 3 kun
Xabarlar:
70
Taqiq:

Qaroqchilar | Пираты | Pirates
--Chiqqan yili: 2014
Davlat: Janubiy Koreya
Janr: Tarixiy, komediya, sarguzasht
Davomiyligi: 02:09:48
Tarjima: Professional (Dublyaj) O'zbek tilida (KinoteatrTV)
Tarjima 2: Professional (Original) Koreys tilida--Rejissyor: Seok-hoon Lee--Rollarda: Kim Nam Gil, Song Yo Jin, Yu Xe Jin, Li Kyong Yong, Ta-u Kim, Pak Chol Min, Von Xe Kim, Cho Dal Xvan, Sin Jeong Geun, Choy Sol Ri--Film Haqida: Film Choson davri haqida hikoya qiladi. Song Ye Jin boshchiligidagi qaroqchilar to'dasi boylik izlab dengizga tushgan Kim Nam Gil boshchiligidagi tog 'qaroqchilar guruhi bilan raqobatlashadi. Ular kitning arvohi ovni kutmoqdalar, xazinalari bo'lgan kemani yutib yubormoqdalar, ularning eng qimmati "qirol muhri" - Xitoy imperatorining Koreyaga sovg'asi.--Videoning sifati: BD-Rip 1080p
Video format: MKV-Video: MPEG4 Video (H264) 1920x808 24fps 1 572 kb/s
Audio: AAC 44000Hz stereo O'zbek tili
Audio 2: AAC 48000Hz 6ch Ing tili
---

Media Info

General
Format : Matroska
Format version : Version 4
File size : 1.78 GiB
Duration : 2 h 9 min
Overall bit rate : 1 962 kb/s
Movie name : The Pirates 2014 1080p BluRay x264 Ganool com
Encoded date : UTC 2020-01-24 12:11:20
Writing application : mkvmerge v21.0.0 ('Tardigrades Will Inherit The Earth') 64-bit
Writing library : libebml v1.3.5 + libmatroska v1.4.8
Video
ID : 1
Format : AVC
Format/Info : Advanced Video Codec
Format profile : High@L4.1
Format settings : CABAC / 4 Ref Frames
Format settings, CABAC : Yes
Format settings, Reference fra : 4 frames
Codec ID : V_MPEG4/ISO/AVC
Duration : 2 h 9 min
Bit rate : 1 572 kb/s
Width : 1 920 pixels
Height : 808 pixels
Display aspect ratio : 2.40:1
Frame rate mode : Constant
Frame rate : 24.000 FPS
Color space : YUV
Chroma subsampling : 4:2:0
Bit depth : 8 bits
Scan type : Progressive
Bits/(Pixel*Frame) : 0.042
Stream size : 1.43 GiB (80%)
Writing library : x264 core 135 r2345 f0c1c53
Encoding settings : cabac=1 / ref=3 / deblock=1:-1:-1 / analyse=0x3:0x113 / me=umh / subme=10 / psy=1 / psy_rd=0.00:0.00 / mixed_ref=1 / me_range=32 / chroma_me=1 / trellis=2 / 8x8dct=1 / cqm=0 / deadzone=21,11 / fast_pskip=0 / chroma_qp_offset=0 / threads=12 / lookahead_threads=2 / sliced_threads=0 / nr=0 / decimate=1 / interlaced=0 / bluray_compat=0 / constrained_intra=0 / bframes=8 / b_pyramid=2 / b_adapt=2 / b_bias=0 / direct=3 / weightb=1 / open_gop=0 / weightp=2 / keyint=250 / keyint_min=25 / scenecut=40 / intra_refresh=0 / rc_lookahead=60 / rc=2pass / mbtree=1 / bitrate=1572 / ratetol=1.0 / qcomp=0.60 / qpmin=10 / qpmax=51 / qpstep=4 / cplxblur=20.0 / qblur=0.5 / ip_ratio=1.40 / aq=1:1.00
Default : Yes
Forced : No
Audio #1
ID : 2
Format : AAC LC
Format/Info : Advanced Audio Codec Low Complexity
Codec ID : A_AAC-2
Duration : 2 h 9 min
Bit rate : 192 kb/s
Channel(s) : 2 channels
Channel layout : L R
Sampling rate : 44.1 kHz
Frame rate : 43.066 FPS (1024 SPF)
Compression mode : Lossy
Stream size : 181 MiB (10%)
Title : uzb.by.MUAH(kinoteatr)
Language : Uzbek
Default : Yes
Forced : Yes
Audio #2
ID : 3
Format : AAC LC SBR
Format/Info : Advanced Audio Codec Low Complexity with Spectral Band Replication
Commercial name : HE-AAC
Format settings : Explicit
Codec ID : A_AAC-2
Duration : 2 h 9 min
Bit rate : 192 kb/s
Channel(s) : 6 channels
Channel layout : C L R Ls Rs LFE
Sampling rate : 48.0 kHz
Frame rate : 23.438 FPS (2048 SPF)
Compression mode : Lossy
Stream size : 178 MiB (10%)
Title : korean
Default : No
Forced : No
Text
ID : 4
Format : UTF-8
Codec ID : S_TEXT/UTF8
Codec ID/Info : UTF-8 Plain Text
Duration : 10 s 0 ms
Bit rate : 36 b/s
Count of elements : 1
Stream size : 45.0 Bytes (0%)
Title : reliz
Language : Russian
Default : Yes
Forced : Yes
Menu
00:00:00.000 : en:00:00:00.000
00:08:05.500 : en:00:08:05.500
00:19:42.458 : en:00:19:42.458
00:30:07.000 : en:00:30:07.000
00:40:11.208 : en:00:40:11.208
00:50:49.833 : en:00:50:49.833
00:58:16.333 : en:00:58:16.333
01:09:47.875 : en:01:09:47.875
01:18:41.208 : en:01:18:41.208
01:29:26.667 : en:01:29:26.667
01:40:56.208 : en:01:40:56.208
01:48:55.292 : en:01:48:55.292
02:05:23.083 : en:02:05:23.083
LAVHALAR
Profil ShX
Xabarlarni ko‘rsatish:    

Hozirgi vaqt: 26-May 12:27

Vaqtlar farqi: UTC + 5



Siz mavzu yaratishingiz mumkin emas
Siz xabarlarga javob qaytarishingiz mumkin emas
Siz o‘z xabarlaringizni tahrirlashingiz mumkin emas
Siz o‘z xabarlaringizni o‘chirishingiz mumkin emas
Siz so‘rovlarda ovoz berishingiz mumkin emas
Siz xabalarga fayllarni biriktirishingiz mumkin emas
Siz fayllarni ko‘chirishingiz mumkin emas