˂
˃
Tarqatmalar statistikasi
Ko‘chirmoqdaman: [ 6 ]
Ko‘chirib bo‘ldim: [ 27 ]
 
     
 
 

Ahmadullo ®

Jins:
Yigit
Staj:
7 oy 13 kun
Xabarlar:
72
Taqiq:

Orzular xonasi | Комната желаний | The Room
--Chiqqan yili: 2019
Davlat: Fransiya, Lyuksemburg, Belgiya
Janr: Fantastika, Drama, Triller, Sarguzasht
Davomiyligi: 01:35:13
Tarjima: Professional MilliyTV O'zbek tilida
Tarjima 2: Professional (Dublyaj) Rus tilida--Rejissyor: Christian Volckman--Rollarda: Olga Kurylenko, Kevin Yanssens, Marianne Burg, Frensis Chapman, Jon Flanders, Erik Jigu, Maykl Kaxya, Kerol Veyers, Joshua Uilson--Film Haqida: Sevimli er-xotin yolg'iz qolgan uyga ko'chishga qaror qilishadi. Eski uyni ta'mirlashda ular devor bilan qoplangan xonani topib, ularning har qanday istaklarini qondirishadi. Millionlab dollarlar, Van Gogning asl nusxasi va eng dabdabali kiyim-kechaklari - xohlagan narsalari tezda amalga oshadi. Biroq, u yetarlicha o'ynab, yosh ayol o'zini o'zi uzoq kutilgan bola bo'lishini istaydi, u qanday bitim tuzayotganini ham bilmaydi ...--Videoning sifati: WEB-DLRip
Video format: MKV-Video: Xvid Video 720x304 23.976fps 1 803 kb/s
Audio: AAC 44000Hz stereo O'zbek tili
Audio 2: AC3 48000Hz 6ch 384kbps Rus tili
---

Media Info

General
Format : Matroska
Format version : Version 4
File size : 1.59 GiB
Duration : 1 h 35 min
Overall bit rate : 2 385 kb/s
Encoded date : UTC 2020-01-23 10:48:06
Writing application : mkvmerge v21.0.0 ('Tardigrades Will Inherit The Earth') 64-bit
Writing library : libebml v1.3.5 + libmatroska v1.4.8
Video
ID : 1
Format : MPEG-4 Visual
Format profile : Advanced Simple@L5
Format settings : BVOP1 / Custom Matrix
Format settings, BVOP : 1
Format settings, QPel : No
Format settings, GMC : No warppoints
Format settings, Matrix : Custom
Codec ID : V_MS/VFW/FOURCC / XVID
Codec ID/Hint : XviD
Duration : 1 h 35 min
Bit rate : 1 803 kb/s
Width : 720 pixels
Height : 304 pixels
Display aspect ratio : 2.35:1
Frame rate mode : Constant
Frame rate : 25.000 FPS
Color space : YUV
Chroma subsampling : 4:2:0
Bit depth : 8 bits
Scan type : Progressive
Compression mode : Lossy
Bits/(Pixel*Frame) : 0.329
Stream size : 1.20 GiB (76%)
Writing library : XviD 67
Default : Yes
Forced : No
Audio #1
ID : 2
Format : AAC LC
Format/Info : Advanced Audio Codec Low Complexity
Codec ID : A_AAC-2
Duration : 1 h 35 min
Bit rate : 192 kb/s
Channel(s) : 2 channels
Channel layout : L R
Sampling rate : 44.1 kHz
Frame rate : 43.066 FPS (1024 SPF)
Compression mode : Lossy
Stream size : 133 MiB (8%)
Title : uzb.my.MUAH(MilliyTV)
Language : Uzbek
Default : Yes
Forced : Yes
Audio #2
ID : 3
Format : AC-3
Format/Info : Audio Coding 3
Commercial name : Dolby Digital
Codec ID : A_AC3
Duration : 1 h 35 min
Bit rate mode : Constant
Bit rate : 384 kb/s
Channel(s) : 6 channels
Channel layout : L R C LFE Ls Rs
Sampling rate : 48.0 kHz
Frame rate : 31.250 FPS (1536 SPF)
Bit depth : 16 bits
Compression mode : Lossy
Stream size : 262 MiB (16%)
Title : rus
Service kind : Complete Main
Default : No
Forced : No
Text
ID : 4
Format : UTF-8
Codec ID : S_TEXT/UTF8
Codec ID/Info : UTF-8 Plain Text
Duration : 10 s 0 ms
Bit rate : 36 b/s
Count of elements : 1
Stream size : 45.0 Bytes (0%)
Title : reliz
Language : Uzbek
Default : Yes
Forced : Yes
LAVHALAR
Profil ShX

Gr@nd

Jins:
Yigit
Staj:
2 yil 8 oy
Xabarlar:
178

Qayerdan: Jizzax Forish

Taqiq:

Ahmadullo, Men qoil qoldim sizga shuncha kino' yasay olmasdim BRAVO

Mavzu yaratish 23-Yan-2020 21:34 (4 soat o‘tgach)

Iqitibos

Profil ShX

Ahmadullo ®

Jins:
Yigit
Staj:
7 oy 13 kun
Xabarlar:
72
Taqiq:

Gr@nd, ha qiziqishdan bo'lsa kerak ))

Mavzu yaratish 24-Yan-2020 09:41 (12 soat o‘tgach)

Iqitibos

Profil ShX

N.U.R.I.K.B.E.K

Jins:
Yigit
Staj:
2 yil 6 oy
Xabarlar:
590

Qayerdan: Jizzax. Paxtakor

Taqiq:

Gr@nd, odam bir kirishsa berilib ketadi bir to'xtasa to'xtab qoladi xar doim bir teks ketmaydi odam bo'masa tez zerikadi )) shu optika yoda odamni xafsalasini buzapti adsl endi bizda ulanish muammo bo'lapti bori xam yo'qolapti

Mavzu yaratish 24-Yan-2020 22:54 (13 soat o‘tgach)

Iqitibos

Profil ShX

Ahmadullo ®

Jins:
Yigit
Staj:
7 oy 13 kun
Xabarlar:
72
Taqiq:

N.U.R.I.K.B.E.K, iya shisha tola qilyotgandizku (( gapiz turi lekin

Mavzu yaratish 25-Yan-2020 11:23 (12 soat o‘tgach)

Iqitibos

Profil ShX

Soft-Release

Jins:
Yigit
Staj:
2 yil 2 oy
Xabarlar:
857

Qayerdan: Kattakurgan

Taqiq:

N.U.R.I.K.B.E.K, Ahmadullo, Optikaga O'tvoliylar Manga O'xshab Zo'r Bo'ladi ag

Mavzu yaratish 25-Yan-2020 21:13 (9 soat o‘tgach)

Iqitibos

Profil ShX
Xabarlarni ko‘rsatish:    

Hozirgi vaqt: 05-Iyun 17:29

Vaqtlar farqi: UTC + 5



Siz mavzu yaratishingiz mumkin emas
Siz xabarlarga javob qaytarishingiz mumkin emas
Siz o‘z xabarlaringizni tahrirlashingiz mumkin emas
Siz o‘z xabarlaringizni o‘chirishingiz mumkin emas
Siz so‘rovlarda ovoz berishingiz mumkin emas
Siz xabalarga fayllarni biriktirishingiz mumkin emas
Siz fayllarni ko‘chirishingiz mumkin emas