˂
˃
Tarqatmalar statistikasi
Ko‘chirmoqdaman: [ 3 ]
Ko‘chirib bo‘ldim: [ 33 ]
 
     
 
 

Ahmadullo ®

Jins:
Yigit
Staj:
7 oy 3 kun
Xabarlar:
70
Taqiq:

Vaxshiy | Звериная ярость | Primal
--Chiqqan yili: 2019
Davlat: AQSH
Janr: Jangari
Davomiyligi: 01:36:51
Tarjima: Professional MY5 O'zbek tilida
Tarjima 2: Professional (Dublyaj) Rus tilida
Tarjima 3: Professional (Original) Ingliz tilida--Rejissyor: Nick Powell--Rollarda: Nikolas Keyj, Famke Yanssen, Kevin Duran, Maykl Imperioli, LaMonika Garret, Tom Uoker, Rey Hernandes, Jon Lyuis, Braulio Kastilo Jr, Syuell Uitni--Film Haqida: Ovchi va ovchi Frank Uolsh noyob hayvonlar turlarini ovlaydi. U yaqindagina Braziliyaning yomg'irli o'rmonlarida oq yaguarni ushladi va endi uni hayvonot bog'iga oz miqdorda sotib yuborishni kutmoqda. Ammo Frank va uning tirik yuklaridan tashqari Amerikaga ketayotgan kema bortida xavfli qotil ham bor, u sudga tortilishi kerak va tibbiy sabablarga ko'ra uni samolyot bilan olib o'tolmaydi. Yo'lda jinoyatchilar qochib qutulishadi va nafaqat maymunlar va zaharli ilonlar, balki tajovuzkor yaguar ...--Videoning sifati: BDRip 1080p
Video format: MKV-Video: HEVC Video (H265) 1920x808 23.976fps 1 739 kb/s
Audio: AAC 44000Hz stereo O'zbek tili
Audio 2: AC3 48000Hz 6ch 384kbps Rus tili
Audio 2: AAC 48000Hz 6ch Ingliz tili
Subtitrlar: Rus tili,Ingliz tili--

Media Info

General
Unique ID : 67005214569371175993080563164080457012 (0x3268BC2383FB80FB0C10FED84E434534)
Complete name : K:\MEDIA\HD MOVIES\TARJIMA HD x264 x265\2019-2020\Vaxshiy.2019.BDRip.1080p.HEVC.10bit.mkv
Format : Matroska
Format version : Version 4
File size : 1.71 GiB
Duration : 1 h 36 min
Overall bit rate : 2 533 kb/s
Movie name : Primal.2019.BDRip 1080p HEVC 10bit.Alltor.mkv
Encoded date : UTC 2020-01-23 09:51:23
Writing application : mkvmerge v21.0.0 ('Tardigrades Will Inherit The Earth') 64-bit
Writing library : libebml v1.3.5 + libmatroska v1.4.8
Video
ID : 1
Format : HEVC
Format/Info : High Efficiency Video Coding
Format profile : Main 10@L4@Main
Codec ID : V_MPEGH/ISO/HEVC
Duration : 1 h 36 min
Bit rate : 1 739 kb/s
Width : 1 920 pixels
Height : 808 pixels
Display aspect ratio : 2.40:1
Frame rate mode : Constant
Frame rate : 23.976 (24000/1001) FPS
Color space : YUV
Chroma subsampling : 4:2:0
Bit depth : 10 bits
Bits/(Pixel*Frame) : 0.047
Stream size : 1.18 GiB (69%)
Default : Yes
Forced : No
Audio #1
ID : 2
Format : AAC LC
Format/Info : Advanced Audio Codec Low Complexity
Codec ID : A_AAC-2
Duration : 1 h 36 min
Bit rate : 192 kb/s
Channel(s) : 2 channels
Channel layout : L R
Sampling rate : 44.1 kHz
Frame rate : 43.066 FPS (1024 SPF)
Compression mode : Lossy
Stream size : 136 MiB (8%)
Title : uzb.by.MUAH(MY5tv)
Language : Russian
Default : Yes
Forced : Yes
Audio #2
ID : 3
Format : AC-3
Format/Info : Audio Coding 3
Commercial name : Dolby Digital
Codec ID : A_AC3
Duration : 1 h 36 min
Bit rate mode : Constant
Bit rate : 384 kb/s
Channel(s) : 6 channels
Channel layout : L R C LFE Ls Rs
Sampling rate : 48.0 kHz
Frame rate : 31.250 FPS (1536 SPF)
Bit depth : 16 bits
Compression mode : Lossy
Stream size : 266 MiB (15%)
Title : Dub iTunes
Language : Russian
Service kind : Complete Main
Default : No
Forced : No
Audio #3
ID : 4
Format : AAC LC SBR
Format/Info : Advanced Audio Codec Low Complexity with Spectral Band Replication
Commercial name : HE-AAC
Format settings : Explicit
Codec ID : A_AAC-2
Duration : 1 h 36 min
Bit rate : 211 kb/s
Channel(s) : 6 channels
Channel layout : C L R Ls Rs LFE
Sampling rate : 48.0 kHz
Frame rate : 23.438 FPS (2048 SPF)
Compression mode : Lossy
Delay relative to video : 23 ms
Stream size : 146 MiB (8%)
Title : Original
Language : English
Default : No
Forced : No
Text #1
ID : 5
Format : UTF-8
Codec ID : S_TEXT/UTF8
Codec ID/Info : UTF-8 Plain Text
Duration : 10 s 0 ms
Bit rate : 36 b/s
Count of elements : 1
Stream size : 45.0 Bytes (0%)
Title : reliz
Language : Russian
Default : Yes
Forced : Yes
Text #2
ID : 6
Format : UTF-8
Codec ID : S_TEXT/UTF8
Codec ID/Info : UTF-8 Plain Text
Duration : 1 h 31 min
Bit rate : 87 b/s
Count of elements : 1041
Stream size : 58.7 KiB (0%)
Title : Full
Language : Russian
Default : No
Forced : No
Text #3
ID : 7
Format : UTF-8
Codec ID : S_TEXT/UTF8
Codec ID/Info : UTF-8 Plain Text
Duration : 1 h 34 min
Bit rate : 48 b/s
Count of elements : 998
Stream size : 33.5 KiB (0%)
Title : Full
Language : English
Default : No
Forced : No
Menu
00:00:00.000 : :Chapter 1
00:10:15.200 : :Chapter 2
00:18:51.600 : :Chapter 3
00:24:53.600 : :Chapter 4
00:27:28.600 : :Chapter 5
00:33:19.000 : :Chapter 6
00:42:31.200 : :Chapter 7
00:50:53.600 : :Chapter 8
01:00:48.400 : :Chapter 9
01:06:42.600 : :Chapter 10
01:15:28.400 : :Chapter 11
01:32:29.800 : :Chapter 12
LAVHALAR
Profil ShX
Xabarlarni ko‘rsatish:    

Hozirgi vaqt: 26-May 12:11

Vaqtlar farqi: UTC + 5



Siz mavzu yaratishingiz mumkin emas
Siz xabarlarga javob qaytarishingiz mumkin emas
Siz o‘z xabarlaringizni tahrirlashingiz mumkin emas
Siz o‘z xabarlaringizni o‘chirishingiz mumkin emas
Siz so‘rovlarda ovoz berishingiz mumkin emas
Siz xabalarga fayllarni biriktirishingiz mumkin emas
Siz fayllarni ko‘chirishingiz mumkin emas