˂
˃
Tarqatmalar statistikasi
Ko‘chirmoqdaman: [ 3 ]
Ko‘chirib bo‘ldim: [ 19 ]
 
     
 
 

Ahmadullo ®

Jins:
Yigit
Staj:
7 oy 13 kun
Xabarlar:
72
Taqiq:

G'olib |
Святой | Maharshi

--Chiqqan yili: 2019
Davlat: Hindiston
Janr: Jangari, drama
Davomiyligi: 02:57:07
Tarjima: Professional YoshlarTV O'zbek tilida
Tarjima 2: Professional (Original) Ingliz tilida--Rejissyor: Vamsi Paidipalli--Rollarda: Mahesh Babu, Puja Hegde, Allari Naresh, Rajsekhar Aningi, R.J. Xemant, Anish Kuruvilla, Mahesh Achanta, Anand, Jagapati Babu, Tanikella Bharani, Meenakshi Dixit--Film Haqida: Filmning bosh qahramoni - Rishi ismli g'oyat maqsadga intiluvchi va shuhratparast yigit. Bir kuni u yerda ko'p million dollarlik boylik orttirish uchun AQShga ketishga qaror qiladi. Rishi maqsadiga erishish uchun ko'p harakatlarni amalga oshiradi. Bu pullarning barchasini topish uchun yigit bir muncha vaqt hatto unga yordam bergan ko'plab odamlarni zo'rlashga majbur bo'ldi. U o'z uyida, Hindistonda doim amal qiladigan tamoyillarini o'zgartirishga majbur bo'ldi. Biroz vaqt o'tadi, va Rishi to'satdan o'z vataniga qaytishga qaror qiladi, u yerda bunday muvaffaqiyatga erishishi mumkin edi.--Videoning sifati: HDRip 720p
Video format: MKV-Video: HEVC (H265) 1280x544 24fps 488 kb/s
Audio: AAC 44000Hz stereo O'zbek tili
Audio 2: DD+ 48000Hz stereo 3072 kbps Ingliz tili
Subtitrlar: Ingliz tili--

Media Info

General
Unique ID : 165107695069028040967639811932131691800 (0x7C3695DCA8611F338A07CCF1F1800D18)
Complete name : K:\MEDIA\HD MOVIES\TARJIMA HD x264 x265\2019-2020\G'olib.2019.HDRip.720p.x265.HEVC.mkv
Format : Matroska
Format version : Version 4
File size : 1.13 GiB
Duration : 2 h 57 min
Overall bit rate : 910 kb/s
Encoded date : UTC 2020-01-23 06:43:13
Writing application : mkvmerge v21.0.0 ('Tardigrades Will Inherit The Earth') 64-bit
Writing library : libebml v1.3.5 + libmatroska v1.4.8
Video
ID : 1
Format : HEVC
Format/Info : High Efficiency Video Coding
Format profile : Main@L3.1@Main
Codec ID : V_MPEGH/ISO/HEVC
Duration : 2 h 57 min
Bit rate : 488 kb/s
Width : 1 280 pixels
Height : 544 pixels
Display aspect ratio : 2.35:1
Frame rate mode : Constant
Frame rate : 24.000 FPS
Color space : YUV
Chroma subsampling : 4:2:0
Bit depth : 8 bits
Bits/(Pixel*Frame) : 0.029
Stream size : 619 MiB (54%)
Writing library : x265 2.6:[Windows][GCC 7.3.0][64 bit] 8bit+10bit+12bit
Encoding settings : cpuid=1173503 / frame-threads=3 / numa-pools=8 / wpp / no-pmode / no-pme / no-psnr / no-ssim / log-level=2 / input-csp=1 / input-res=1280x544 / interlace=0 / total-frames=0 / level-idc=0 / high-tier=1 / uhd-bd=0 / ref=1 / no-allow-non-conformance / no-repeat-headers / annexb / no-aud / no-hrd / info / hash=0 / no-temporal-layers / open-gop / min-keyint=24 / keyint=240 / bframes=3 / b-adapt=0 / b-pyramid / bframe-bias=0 / rc-lookahead=5 / lookahead-slices=0 / scenecut=0 / no-intra-refresh / ctu=32 / min-cu-size=16 / no-rect / no-amp / max-tu-size=32 / tu-inter-depth=1 / tu-intra-depth=1 / limit-tu=0 / rdoq-level=0 / dynamic-rd=0.00 / no-ssim-rd / no-signhide / no-tskip / nr-intra=0 / nr-inter=0 / no-constrained-intra / strong-intra-smoothing / max-merge=2 / limit-refs=0 / no-limit-modes / me=0 / subme=0 / merange=57 / temporal-mvp / no-weightp / no-weightb / no-analyze-src-pics / deblock=0:0 / no-sao / no-sao-non-deblock / rd=2 / early-skip / rskip / fast-intra / no-tskip-fast / no-cu-lossless / no-b-intra / no-splitrd-skip / rdpenalty=0 / psy-rd=2.00 / psy-rdoq=0.00 / no-rd-refine / analysis-reuse-mode=0 / no-lossless / cbqpoffs=0 / crqpoffs=0 / rc=abr / bitrate=493 / qcomp=0.60 / qpstep=4 / stats-write=0 / stats-read=0 / ipratio=1.40 / pbratio=1.30 / aq-mode=1 / aq-strength=0.00 / cutree / zone-count=0 / no-strict-cbr / qg-size=32 / no-rc-grain / qpmax=69 / qpmin=0 / no-const-vbv / sar=1 / overscan=0 / videoformat=5 / range=0 / colorprim=1 / transfer=1 / colormatrix=1 / chromaloc=0 / display-window=0 / max-cll=0,0 / min-luma=0 / max-luma=255 / log2-max-poc-lsb=8 / vui-timing-info / vui-hrd-info / slices=1 / no-opt-qp-pps / no-opt-ref-list-length-pps / no-multi-pass-opt-rps / scenecut-bias=0.05 / no-opt-cu-delta-qp / no-aq-motion / no-hdr / no-hdr-opt / no-dhdr10-opt / analysis-reuse-level=5 / scale-factor=0 / refine-intra=0 / refine-inter=0 / refine-mv=0 / no-limit-sao / ctu-info=0 / no-lowpass-dct / refine-mv-type=0 / copy-pic=1
Language : Telugu
Default : Yes
Forced : No
Color range : Limited
Color primaries : BT.709
Transfer characteristics : BT.709
Matrix coefficients : BT.709
Audio #1
ID : 2
Format : AAC LC
Format/Info : Advanced Audio Codec Low Complexity
Codec ID : A_AAC-2
Duration : 2 h 57 min
Bit rate : 192 kb/s
Channel(s) : 2 channels
Channel layout : L R
Sampling rate : 44.1 kHz
Frame rate : 43.066 FPS (1024 SPF)
Compression mode : Lossy
Delay relative to video : -5 ms
Stream size : 247 MiB (21%)
Title : uzb(MUAH)yoshlarTV
Language : Russian
Default : Yes
Forced : Yes
Audio #2
ID : 3
Format : E-AC-3
Format/Info : Enhanced AC-3
Commercial name : Dolby Digital Plus
Codec ID : A_EAC3
Duration : 2 h 57 min
Bit rate mode : Constant
Bit rate : 224 kb/s
Channel(s) : 2 channels
Channel layout : L R
Sampling rate : 48.0 kHz
Frame rate : 31.250 FPS (1536 SPF)
Compression mode : Lossy
Delay relative to video : -5 ms
Stream size : 284 MiB (25%)
Title : hind
Language : Telugu
Service kind : Complete Main
Default : No
Forced : No
Text #1
ID : 4
Format : UTF-8
Codec ID : S_TEXT/UTF8
Codec ID/Info : UTF-8 Plain Text
Duration : 10 s 0 ms
Bit rate : 36 b/s
Count of elements : 1
Stream size : 45.0 Bytes (0%)
Title : reliz
Language : Russian
Default : Yes
Forced : Yes
Text #2
ID : 5
Format : UTF-8
Codec ID : S_TEXT/UTF8
Codec ID/Info : UTF-8 Plain Text
Duration : 2 h 54 min
Bit rate : 72 b/s
Count of elements : 2347
Stream size : 92.0 KiB (0%)
Language : English
Default : No
Forced : No
LAVHALAR
Profil ShX

Gr@nd

Jins:
Yigit
Staj:
2 yil 8 oy
Xabarlar:
178

Qayerdan: Jizzax Forish

Taqiq:

Ishingizga omad Charchamang sizga o'xshaganlar ko'payaversin

Mavzu yaratish 23-Yan-2020 12:21 (21 daqiqa o‘tgach)

Iqitibos

Profil ShX

Ahmadullo ®

Jins:
Yigit
Staj:
7 oy 13 kun
Xabarlar:
72
Taqiq:

Gr@nd, rahmat kattakon )

Mavzu yaratish 23-Yan-2020 13:17 (56 daqiqa o‘tgach)

Iqitibos

Profil ShX

Lock

Jins:
Yigit
Staj:
1 yil 7 oy
Xabarlar:
71

Qayerdan: Namangan

Taqiq:

Ha albatta katta rahmat, bitta iltimos shu kinolarni Kinopoisk va IMDB dagi reytinglarini ham kiritib ketsangiz zo'r ish bo'lardi

Mavzu yaratish 24-Yan-2020 10:04 (20 soat o‘tgach)

Iqitibos

Profil ShX

Ahmadullo ®

Jins:
Yigit
Staj:
7 oy 13 kun
Xabarlar:
72
Taqiq:

8908Kinopoisk va IMDB dagi reyting
hop harakat qilamiz

Mavzu yaratish 24-Yan-2020 10:26 (22 daqiqa o‘tgach)

Iqitibos

Profil ShX
Xabarlarni ko‘rsatish:    

Hozirgi vaqt: 05-Iyun 17:17

Vaqtlar farqi: UTC + 5



Siz mavzu yaratishingiz mumkin emas
Siz xabarlarga javob qaytarishingiz mumkin emas
Siz o‘z xabarlaringizni tahrirlashingiz mumkin emas
Siz o‘z xabarlaringizni o‘chirishingiz mumkin emas
Siz so‘rovlarda ovoz berishingiz mumkin emas
Siz xabalarga fayllarni biriktirishingiz mumkin emas
Siz fayllarni ko‘chirishingiz mumkin emas