˂
˃
Tarqatmalar statistikasi
Ko‘chirmoqdaman: [ 3 ]
Ko‘chirib bo‘ldim: [ 8 ]
 
     
 
 

Ahmadullo ®

Jins:
Yigit
Staj:
7 oy 6 kun
Xabarlar:
72
Taqiq:

Hayoldagi haqiqatlar |
Один | 1 - Nenokkadine

--Chiqqan yili: 2014
Davlat: Hindiston
Janr: Jangari, triller, melodrama
Davomiyligi: 02:56:16
Tarjima: Professional O'zbekistonTV O'zbek tilida
Tarjima 2: Professional (Original) Rus tilida--Rejissyor: Sukumar--Rollarda: Mahesh Babu, Kriti Sanon, Nasser, Pradip Ravat, Anu Xassan, Kelli Dorji, Sajji Shinde, Krishna Murali Posani, Srinivasa Reddi, Ravi Verma--Film Haqida: Gutam yolg'iz, ota-onasiz katta bo'lgan. Bolalar uyiga urish. Keyin u rok yulduziga aylandi. Va u xohlagan narsasiga ega bo'lib tuyuladi, lekin uning hayotida ota-onalarning yo'qligini hech narsa qoplay olmaydi. Va uzoq vaqtdan beri eslab qolingan xotiralar ko'tariladi - Gauamning etim bo'lishida aybdor bo'lgan uch kishi. Va u o'tmish haqida, ota-onasi kimligi haqida bilib olish uchun va boshqa yo'l bilan ularning o'limiga qasos olish uchun banditlarni topishga qaror qiladi. Ammo u asosiy jangni o'zi bilan o'tkazish kerak deb o'ylamaydi.--Videoning sifati: BDRip 1080p
Video format: MKV-Video: MPEG4 (H264) 1920x1080 23.976fps 4 932 kb/s
Audio: AAC 44000Hz stereo O'zbek tili
Audio 2: AAC 44000Hz stereo Rus tili
Subtitrlar: ---

Media Info

General
Unique ID : 112740668437868672000542262711427045278 (0x54D1101C255A0076AA25F54D718C979E)
Complete name : K:\MEDIA\HD MOVIES\TARJIMA HD x264 x265\2019-2020\Hayoldagi.haqiqatlar.2014.BDRip.H264.by.MUAH.mkv
Format : Matroska
Format version : Version 4
File size : 6.61 GiB
Duration : 2 h 56 min
Overall bit rate mode : Variable
Overall bit rate : 5 369 kb/s
Encoded date : UTC 2020-01-20 07:50:30
Writing application : mkvmerge v21.0.0 ('Tardigrades Will Inherit The Earth') 64-bit
Writing library : libebml v1.3.5 + libmatroska v1.4.8
Video
ID : 1
Format : AVC
Format/Info : Advanced Video Codec
Format profile : High@L4
Format settings : CABAC / 4 Ref Frames
Format settings, CABAC : Yes
Format settings, Reference fra : 4 frames
Format settings, GOP : M=1, N=72
Codec ID : V_MPEG4/ISO/AVC
Duration : 2 h 56 min
Bit rate mode : Variable
Bit rate : 4 932 kb/s
Maximum bit rate : 14.7 Mb/s
Width : 1 920 pixels
Height : 1 080 pixels
Display aspect ratio : 16:9
Frame rate mode : Constant
Frame rate : 24.000 FPS
Color space : YUV
Chroma subsampling : 4:2:0
Bit depth : 8 bits
Scan type : Progressive
Bits/(Pixel*Frame) : 0.099
Stream size : 6.07 GiB (92%)
Default : Yes
Forced : No
Audio #1
ID : 2
Format : AAC LC
Format/Info : Advanced Audio Codec Low Complexity
Codec ID : A_AAC-2
Duration : 2 h 56 min
Bit rate : 178 kb/s
Channel(s) : 2 channels
Channel layout : L R
Sampling rate : 44.1 kHz
Frame rate : 43.066 FPS (1024 SPF)
Compression mode : Lossy
Stream size : 224 MiB (3%)
Title : uzb(MUAH)UzbekistanTV
Language : Uzbek
Default : Yes
Forced : Yes
Audio #2
ID : 3
Format : AAC LC
Format/Info : Advanced Audio Codec Low Complexity
Codec ID : A_AAC-2
Duration : 2 h 56 min
Bit rate : 256 kb/s
Channel(s) : 2 channels
Channel layout : L R
Sampling rate : 44.1 kHz
Frame rate : 43.066 FPS (1024 SPF)
Compression mode : Lossy
Stream size : 323 MiB (5%)
Title : rus
Default : No
Forced : No
Text
ID : 4
Format : UTF-8
Codec ID : S_TEXT/UTF8
Codec ID/Info : UTF-8 Plain Text
Duration : 10 s 0 ms
Bit rate : 36 b/s
Count of elements : 1
Stream size : 45.0 Bytes (0%)
Title : reliz
Language : Russian
Default : Yes
Forced : Yes
LAVHALAR
Profil ShX

showmusic77077

Jins:
Ko‘rsatilmagan
Staj:
5 oy 29 kun
Xabarlar:
6
Taqiq:

стоит смотрет?????????

Mavzu yaratish 21-Yan-2020 13:44 (19 soat o‘tgach)

Iqitibos

Profil ShX

Ahmadullo ®

Jins:
Yigit
Staj:
7 oy 6 kun
Xabarlar:
72
Taqiq:

8898стоит смотрет?????????
da kanewno

Mavzu yaratish 21-Yan-2020 18:05 (4 soat o‘tgach)

Iqitibos

Profil ShX
Xabarlarni ko‘rsatish:    

Hozirgi vaqt: 30-May 01:25

Vaqtlar farqi: UTC + 5



Siz mavzu yaratishingiz mumkin emas
Siz xabarlarga javob qaytarishingiz mumkin emas
Siz o‘z xabarlaringizni tahrirlashingiz mumkin emas
Siz o‘z xabarlaringizni o‘chirishingiz mumkin emas
Siz so‘rovlarda ovoz berishingiz mumkin emas
Siz xabalarga fayllarni biriktirishingiz mumkin emas
Siz fayllarni ko‘chirishingiz mumkin emas