˂
˃
Tarqatmalar statistikasi
Ko‘chirib bo‘ldim: [ 5 ]
 
     
 
 

Soft-Release ®

Jins:
Yigit
Staj:
2 yil 4 oy
Xabarlar:
857

Qayerdan: Kattakurgan

Taqiq:

Gemini / Гемини / Gemini Man -Chiqqan Yili: 2019
Davlat: Xitoy, AQSH
Janr: Fantastika, Jangari, Triller, Drama
Davomiyligi: 01:57:03
Tarjima: Professional (Ko'p Ovozli) [Sevimli TV] [iTunes]-Rejissyor: Eng Li / Энг Ли / Ang Lee-Subtitrlar: Inglizcha-Rollarda: Uill Smit, Meri Elizabet Uinsted, Klayv Oven, Benedikt Vong, Dugles Xodj, Ralf Broun, Linda Emond, Ilya Volox, E.J. Bonilya, Viktor Hyugo-Tavsif: Genri brogan, birinchi sinf qotil, har bir qadamni oldindan biladigan sirli operativ shaxsning maqsadiga aylanadi...- -Sifat: BDRip 2160p | HFR HDR | HEVC 10bit
Format: MKV (x265) | 60 fps
Video: HEVC, 4645 Kb/s, 3840x2080
Audio №1: MP3, 2 ch, 128 Kb/s | UZB
Audio №2: AC3, 6 ch, 384 Kb/s | RUS
Audio №3: AAC, 8 ch, 294 Kb/s | ENG-

MediaInfo

General
Unique ID : 258506249402767679088300739062687967064 (0xC27A7E1E8BE71D0321782A7E7D59A758)
Complete name : Gemini.Man.2019.2160p.10bit.HFR.HDR.BluRay.8CH.x265.HEVC.By.NuRKHoNoFF.mkv
Format : Matroska
Format version : Version 4
File size : 4.46 GiB
Duration : 1 h 57 min
Overall bit rate mode : Variable
Overall bit rate : 5 456 kb/s
Movie name : Gemini.Man.2019.2160p.10bit.HFR.HDR.BluRay.8CH.x265.HEVC.By.NuRKHoNoFF
Encoded date : UTC 2020-01-19 08:54:39
Writing application : mkvmerge v38.0.0 ('The Silent Type') 64-bit
Writing library : libebml v1.3.9 + libmatroska v1.5.2
Video
ID : 1
Format : HEVC
Format/Info : High Efficiency Video Coding
Format profile : Main 10@L5.1@Main
HDR format : SMPTE ST 2086, HDR10 compatible
Codec ID : V_MPEGH/ISO/HEVC
Duration : 1 h 57 min
Bit rate : 4 645 kb/s
Width : 3 840 pixels
Height : 2 080 pixels
Display aspect ratio : 1.85:1
Frame rate mode : Constant
Frame rate : 59.940 (60000/1001) FPS
Color space : YUV
Chroma subsampling : 4:2:0
Bit depth : 10 bits
Bits/(Pixel*Frame) : 0.010
Stream size : 3.80 GiB (85%)
Default : Yes
Forced : No
Color range : Limited
Color primaries : BT.2020
Transfer characteristics : PQ
Matrix coefficients : BT.2020 non-constant
Mastering display color pri : Display P3
Mastering display luminance : min: 0.0010 cd/m2, max: 1000 cd/m2
Maximum Content Light Level : 5180 cd/m2
Maximum Frame-Average Light : 1577 cd/m2
Audio #1
ID : 2
Format : MPEG Audio
Format version : Version 1
Format profile : Layer 3
Format settings : Joint stereo / MS Stereo
Codec ID : A_MPEG/L3
Codec ID/Hint : MP3
Duration : 1 h 56 min
Bit rate mode : Variable
Bit rate : 128 kb/s
Channel(s) : 2 channels
Sampling rate : 48.0 kHz
Frame rate : 41.667 FPS (1152 SPF)
Compression mode : Lossy
Stream size : 107 MiB (2%)
Title : O'zbek Tili
Language : Uzbek
Default : No
Forced : No
Audio #2
ID : 3
Format : AC-3
Format/Info : Audio Coding 3
Commercial name : Dolby Digital
Codec ID : A_AC3
Duration : 1 h 57 min
Bit rate mode : Constant
Bit rate : 384 kb/s
Channel(s) : 6 channels
Channel layout : L R C LFE Ls Rs
Sampling rate : 48.0 kHz
Frame rate : 31.250 FPS (1536 SPF)
Bit depth : 16 bits
Compression mode : Lossy
Stream size : 321 MiB (7%)
Title : (ELEKTRI4KA.UNIONGANG)
Language : Russian
Service kind : Complete Main
Default : Yes
Forced : No
Audio #3
ID : 4
Format : AAC LC SBR
Format/Info : Advanced Audio Codec Low Complexity with Spectral Band Replication
Commercial name : HE-AAC
Format settings : Explicit
Codec ID : A_AAC-2
Duration : 1 h 57 min
Bit rate : 294 kb/s
Channel(s) : 8 channels
Channel layout : C L R Ls Rs Lb Rb LFE
Sampling rate : 48.0 kHz
Frame rate : 23.438 FPS (2048 SPF)
Compression mode : Lossy
Delay relative to video : 31 ms
Stream size : 246 MiB (5%)
Title : (ELEKTRI4KA.UNIONGANG)
Language : English
Default : No
Forced : No
Text
ID : 5
Format : UTF-8
Codec ID : S_TEXT/UTF8
Codec ID/Info : UTF-8 Plain Text
Duration : 1 h 46 min
Bit rate : 48 b/s
Count of elements : 1314
Stream size : 38.0 KiB (0%)
Language : English
Default : No
Forced : No
Profil ShX
Xabarlarni ko‘rsatish:    

Hozirgi vaqt: 15-Iyul 02:48

Vaqtlar farqi: UTC + 5



Siz mavzu yaratishingiz mumkin emas
Siz xabarlarga javob qaytarishingiz mumkin emas
Siz o‘z xabarlaringizni tahrirlashingiz mumkin emas
Siz o‘z xabarlaringizni o‘chirishingiz mumkin emas
Siz so‘rovlarda ovoz berishingiz mumkin emas
Siz xabalarga fayllarni biriktirishingiz mumkin emas
Siz fayllarni ko‘chirishingiz mumkin emas