˂
˃
Tarqatmalar statistikasi
Ko‘chirmoqdaman: [ 1 ]
Ko‘chirib bo‘ldim: [ 26 ]
 
     
 
 

Ahmadullo ®

Jins:
Yigit
Staj:
7 oy 3 kun
Xabarlar:
70
Taqiq:

Ertadan keyin |
Послезавтра | The Day After Tomorrow

--Chiqqan yili: 2004
Davlat: AQSH
Janr: Fantastika, Drama, Triller, Sarguzasht
Davomiyligi: 02:03:40
Tarjima: Professional SevimliTV O'zbek tilida
Tarjima 2: Professional (Dublyaj) Rus tilida--Rejissyor: Roland Emmerich--Rollarda: Glenn Plammer, Emmi Rossam, Jek Jillenxol, Dennis Queyd, Desh Mayok, Kennet Uelsh--Film Haqida: Yer yuzi global ekologik halokatga duch kelmoqda: Dunyodagi barcha tirik jonzot qurg'oqchilikdan, boshqa tomondan esa - shov-shuvli suv elementlari shaharlarni vayron qilmoqda, falokatning fojiali tabiati esa global iqlimni to'xtatishga harakat qiladigan, Nyu-Yorkda yo'qolgan o'g'lini izlash uchun olim o'zini ayamaydi, upaytda esa yangi muzlik davri boshlanayotgan edi.--Videoning sifati: BDRip-AVC
Video format: MKV-Video: H264 Video 1056x448 23.976fps 2139 kb/s
Audio: AAC 44000Hz stereo O'zbek tili
Audio 2: Dolby AC3 48000Hz 6ch 384kbps Rus tili
Subtitrlar: Ing tilida,Rus tilida--

Media Info

General
Format : Matroska
Format version : Version 4
File size : 2.36 GiB
Duration : 2 h 12 min
Overall bit rate : 2 545 kb/s
Movie name : -=POTROKS=-
Encoded date : UTC 2020-01-19 06:58:49
Writing application : mkvmerge v21.0.0 ('Tardigrades Will Inherit The Earth') 64-bit
Writing library : libebml v1.3.5 + libmatroska v1.4.8
Video
ID : 1
Format : AVC
Format/Info : Advanced Video Codec
Format profile : High@L4.1
Format settings : CABAC / 11 Ref Frames
Format settings, CABAC : Yes
Format settings, Reference fra : 11 frames
Codec ID : V_MPEG4/ISO/AVC
Duration : 2 h 3 min
Bit rate : 2 139 kb/s
Width : 1 056 pixels
Height : 448 pixels
Display aspect ratio : 2.35:1
Frame rate mode : Constant
Frame rate : 23.976 (24000/1001) FPS
Color space : YUV
Chroma subsampling : 4:2:0
Bit depth : 8 bits
Scan type : Progressive
Bits/(Pixel*Frame) : 0.189
Stream size : 1.85 GiB (78%)
Title : Poslezavtra.2004.D.BDRip.x264.potroks
Writing library : x264 core 116 r2019M 9cc407d
Language : English
Default : Yes
Forced : No
Audio #1
ID : 2
Format : AAC LC
Format/Info : Advanced Audio Codec Low Complexity
Codec ID : A_AAC-2
Duration : 2 h 12 min
Bit rate : 192 kb/s
Channel(s) : 2 channels
Channel layout : L R
Sampling rate : 44.1 kHz
Frame rate : 43.066 FPS (1024 SPF)
Compression mode : Lossy
Stream size : 179 MiB (7%)
Title : uzb(MUAH)sevimlitv
Language : Russian
Default : Yes
Forced : Yes
Audio #2
ID : 3
Format : AC-3
Format/Info : Audio Coding 3
Commercial name : Dolby Digital
Codec ID : A_AC3
Duration : 2 h 3 min
Bit rate mode : Constant
Bit rate : 384 kb/s
Channel(s) : 6 channels
Channel layout : L R C LFE Ls Rs
Sampling rate : 48.0 kHz
Frame rate : 31.250 FPS (1536 SPF)
Bit depth : 16 bits
Compression mode : Lossy
Stream size : 340 MiB (14%)
Title : Dub AC3, 5.1 384 kbps
Language : Russian
Service kind : Complete Main
Default : No
Forced : No
Text #1
ID : 4
Format : UTF-8
Codec ID : S_TEXT/UTF8
Codec ID/Info : UTF-8 Plain Text
Duration : 10 s 0 ms
Bit rate : 36 b/s
Count of elements : 1
Stream size : 45.0 Bytes (0%)
Title : reliz
Language : Russian
Default : Yes
Forced : Yes
Text #2
ID : 5
Format : UTF-8
Codec ID : S_TEXT/UTF8
Codec ID/Info : UTF-8 Plain Text
Duration : 1 h 51 min
Bit rate : 55 b/s
Count of elements : 1158
Stream size : 45.4 KiB (0%)
Language : English
Default : No
Forced : No
Text #3
ID : 6
Format : UTF-8
Codec ID : S_TEXT/UTF8
Codec ID/Info : UTF-8 Plain Text
Duration : 2 h 11 min
Bit rate : 75 b/s
Count of elements : 1258
Stream size : 72.5 KiB (0%)
Language : Russian
Default : No
Forced : No
Text #4
ID : 7
Format : UTF-8
Codec ID : S_TEXT/UTF8
Codec ID/Info : UTF-8 Plain Text
Duration : 2 h 9 min
Bit rate : 75 b/s
Count of elements : 1110
Stream size : 71.8 KiB (0%)
Title : 2
Language : Russian
Default : No
Forced : No
Text #5
ID : 8
Format : UTF-8
Codec ID : S_TEXT/UTF8
Codec ID/Info : UTF-8 Plain Text
Duration : 2 h 9 min
Bit rate : 83 b/s
Count of elements : 1164
Stream size : 79.3 KiB (0%)
Title : 3
Language : Russian
Default : No
Forced : No
LAVHALAR
Profil ShX

Bestfriend

Jins:
Ko‘rsatilmagan
Staj:
10 oy
Xabarlar:
13
Taqiq:

ko`chirib bo`lmayapti tarqatuvchilar yordam bervorilar oldindan raxmat

Mavzu yaratish 25-Apr-2020 16:40 (3 oy 6 kun o‘tgach)

Iqitibos

Profil ShX
Xabarlarni ko‘rsatish:    

Hozirgi vaqt: 26-May 11:39

Vaqtlar farqi: UTC + 5



Siz mavzu yaratishingiz mumkin emas
Siz xabarlarga javob qaytarishingiz mumkin emas
Siz o‘z xabarlaringizni tahrirlashingiz mumkin emas
Siz o‘z xabarlaringizni o‘chirishingiz mumkin emas
Siz so‘rovlarda ovoz berishingiz mumkin emas
Siz xabalarga fayllarni biriktirishingiz mumkin emas
Siz fayllarni ko‘chirishingiz mumkin emas