˂
˃
Tarqatmalar statistikasi
Ko‘chirmoqdaman: [ 1 ]
Ko‘chirib bo‘ldim: [ 8 ]
 
     
 
 

Ahmadullo ®

Jins:
Yigit
Staj:
7 oy 13 kun
Xabarlar:
72
Taqiq:

T-34 |
T-34 | T-34

--Chiqqan yili: 2018
Davlat: Rossiya
Janr: Drama, Jangovar, Sarguzasht
Davomiyligi: 02:19:07
Tarjima: Professional MY5 O'zbek tilida--Rejissyor: Aleksey Sidorov--Rollarda: Aleksandr Petrov, Viktor Dobronravov, Irina Starshenbaum, Vinsens Kifer, Petr Skvorsov, Semen Treskunov, Artyom Bistrov, Anton Bogdanov, Vasiliy Urievskiy, Vasiliy Butkevich.--Film Haqida: Insoniyatning eng og'ir sinovlari paytida, yaqinlaringizning hayoti har qanday harakatga bog'liq bo'lganda, ikkita qasos dushman o'zlarining qarshiliklarini boshlaydi. Asirga olinganlar, kecha kursant Ivushkin jasur qochishni rejalashtirmoqda. U ekipajni yig'adi va afsonaviy T-34da Jager boshchiligidagi Germaniya tanklari bilan kurashadi. Uning sevgisi va Vatan uchun, u oxirigacha borishga tayyor.--Videoning sifati: HDRip
Video format: MKV-Video: Xvid Video 720x304 23.976fps 1337 kb/s
Audio: AAC 44000Hz stereo O'zbek tili
Subtitrlar: - --

Media Info

General
Unique ID : 218791761489522309928868623342588871575 (0xA499C2B0605AFEBBBD72D128263F4397)
Complete name : K:\MEDIA\HD MOVIES\TARJIMA HD x264 x265\2017-2018\T-34.2018.HDrip.mkv
Format : Matroska
Format version : Version 4
File size : 1.45 GiB
Duration : 2 h 19 min
Overall bit rate : 1 495 kb/s
Encoded date : UTC 2019-01-29 03:24:01
Writing application : mkvmerge v6.1.0 ('Old Devil') built on Apr 20 2013 10:07:04
Writing library : libebml v1.3.0 + libmatroska v1.4.0
Video
ID : 1
Format : MPEG-4 Visual
Format profile : Advanced Simple@L5
Format settings : BVOP1 / Custom Matrix
Format settings, BVOP : 1
Format settings, QPel : No
Format settings, GMC : No warppoints
Format settings, Matrix : Custom
Codec ID : V_MS/VFW/FOURCC / XVID
Codec ID/Hint : XviD
Duration : 2 h 19 min
Bit rate : 1 337 kb/s
Width : 720 pixels
Height : 304 pixels
Display aspect ratio : 2.35:1
Frame rate mode : Constant
Frame rate : 23.976 (23976/1000) FPS
Color space : YUV
Chroma subsampling : 4:2:0
Bit depth : 8 bits
Scan type : Progressive
Compression mode : Lossy
Bits/(Pixel*Frame) : 0.255
Stream size : 1.30 GiB (89%)
Writing library : XviD 67
Default : Yes
Forced : No
Statistics Tags Issue : mkvmerge v15.0.0 ('Duel with the Devil') 64-bit 2019-01-24 20:14:36 / mkvmerge v6.1.0 ('Old Devil') built on Apr 20 2013 10:07:04 2019-01-29 03:24:01
FromStats_BitRate : 1364886
FromStats_Duration : 02:19:07.932000000
FromStats_FrameCount : 200150
FromStats_StreamSize : 1424246948
Audio
ID : 2
Format : MPEG Audio
Format version : Version 1
Format profile : Layer 3
Format settings : Joint stereo / MS Stereo
Codec ID : A_MPEG/L3
Codec ID/Hint : MP3
Duration : 2 h 19 min
Bit rate mode : Constant
Bit rate : 128 kb/s
Channel(s) : 2 channels
Sampling rate : 44.1 kHz
Compression mode : Lossy
Stream size : 127 MiB (9%)
Title : O'zbek Tili
Writing library : LAME3.99.5
Language : Uzbek
Default : No
Forced : No
Statistics Tags Issue : mkvmerge v15.0.0 ('Duel with the Devil') 64-bit 2019-01-24 20:14:36 / mkvmerge v6.1.0 ('Old Devil') built on Apr 20 2013 10:07:04 2019-01-29 03:24:01
FromStats_BitRate : 128000
FromStats_Duration : 02:19:08.003000000
FromStats_FrameCount : 319572
FromStats_StreamSize : 133568052
LAVHALAR
Profil ShX
Xabarlarni ko‘rsatish:    

Hozirgi vaqt: 05-Iyun 16:41

Vaqtlar farqi: UTC + 5



Siz mavzu yaratishingiz mumkin emas
Siz xabarlarga javob qaytarishingiz mumkin emas
Siz o‘z xabarlaringizni tahrirlashingiz mumkin emas
Siz o‘z xabarlaringizni o‘chirishingiz mumkin emas
Siz so‘rovlarda ovoz berishingiz mumkin emas
Siz xabalarga fayllarni biriktirishingiz mumkin emas
Siz fayllarni ko‘chirishingiz mumkin emas