˂
˃
Tarqatmalar statistikasi
Ko‘chirmoqdaman: [ 3 ]
Ko‘chirib bo‘ldim: [ 20 ]
 
     
 
 

Ahmadullo ®

Jins:
Yigit
Staj:
7 oy 5 kun
Xabarlar:
72
Taqiq:

Noyabr odami |
Человек ноября | The November Man

--Chiqqan yili: 2014
Davlat: AQSH
Janr: Jangari, Triller, Jinoyat
Davomiyligi: 01:48:21
Tarjima: Professional MY5 O'zbek tilida
Tarjima 2: Professional (Original) Ingliz tilida
Tarjima 3: Professional (Dublyaj) Rus tilida--Rejissyor: Rojer Donaldson--Rollarda: Pirs Brosnan, Luqo Breysi, Olga Kurylenko, Bill Smitrovich, Amila Terzimehik, Lazar Ristovskiy, Mediha Musliovich, Eliza Teylor, Katerina Skorson, Aki Kotabe--Film Haqida: Markaziy razvedka boshqarmasining sobiq xodimi bilmasdan o'z biznesiga qaytib, razvedka boshqarmasi boshliqlarining xalqaro fitnalari markazida. Ular Sharqiy Evropani ichki siyosatga prezidentlikka nomzod orqali o'tmishdagi shantaj bilan tanishtirishni rejalashtirishmoqda. Uning vijdoni bo'yicha - Shimoliy Kavkazdagi ikkinchi urush boshlanishi, qurbonlar, zo'ravonlik. Ammo Piter Devero qo'pol o'ynash sirlarini ochib tashlamoqda ...--Videoning sifati: BDRip
Video format: MKV-Video: H264 Video 1056x440 23.976fps 1982 kb/s
Audio: AAC 44000Hz stereo O'zbek tili
Audio 2: Dolby AC3 48000Hz 6ch 448kbps Ing tili
Audio 3: Dolby AC3 48000Hz 6ch 448kbps Rus tili
Subtitrlar: Ing tilida,Rus tilida--

Media Info

General
Format : Matroska
Format version : Version 4
File size : 2.62 GiB
Duration : 1 h 48 min
Overall bit rate : 3 468 kb/s
Movie name : The November Man (2014) - ELLYWOOD
Encoded date : UTC 2020-01-14 11:48:40
Writing application : mkvmerge v21.0.0 ('Tardigrades Will Inherit The Earth') 64-bit
Writing library : libebml v1.3.5 + libmatroska v1.4.8
Video
ID : 1
Format : AVC
Format/Info : Advanced Video Codec
Format profile : High@L4.1
Format settings : CABAC / 10 Ref Frames
Format settings, CABAC : Yes
Format settings, Reference fra : 10 frames
Codec ID : V_MPEG4/ISO/AVC
Duration : 1 h 48 min
Bit rate : 1 982 kb/s
Width : 1 056 pixels
Height : 440 pixels
Display aspect ratio : 2.40:1
Frame rate mode : Constant
Frame rate : 23.976 FPS
Color space : YUV
Chroma subsampling : 4:2:0
Bit depth : 8 bits
Scan type : Progressive
Bits/(Pixel*Frame) : 0.178
Stream size : 1.50 GiB (57%)
Title : potroks
Writing library : x264 core 130 r2273 b3065e6
Language : English
Default : Yes
Forced : No
Audio #1
ID : 2
Format : AAC LC
Format/Info : Advanced Audio Codec Low Complexity
Codec ID : A_AAC-2
Duration : 1 h 48 min
Bit rate : 192 kb/s
Channel(s) : 2 channels
Channel layout : L R
Sampling rate : 44.1 kHz
Frame rate : 43.066 FPS (1024 SPF)
Compression mode : Lossy
Stream size : 151 MiB (6%)
Title : uzb(MUAH) my5tv
Language : Russian
Default : Yes
Forced : Yes
Audio #2
ID : 3
Format : AC-3
Format/Info : Audio Coding 3
Commercial name : Dolby Digital
Codec ID : A_AC3
Duration : 1 h 48 min
Bit rate mode : Constant
Bit rate : 448 kb/s
Channel(s) : 6 channels
Channel layout : L R C LFE Ls Rs
Sampling rate : 48.0 kHz
Frame rate : 31.250 FPS (1536 SPF)
Bit depth : 16 bits
Compression mode : Lossy
Stream size : 347 MiB (13%)
Title : Dub | DD 5.1 @ 448 kbps - Blu-Ray RUS
Language : Russian
Service kind : Complete Main
Default : No
Forced : Yes
Audio #3
ID : 4
Format : AC-3
Format/Info : Audio Coding 3
Commercial name : Dolby Digital
Codec ID : A_AC3
Duration : 1 h 48 min
Bit rate mode : Constant
Bit rate : 448 kb/s
Channel(s) : 6 channels
Channel layout : L R C LFE Ls Rs
Sampling rate : 48.0 kHz
Frame rate : 31.250 FPS (1536 SPF)
Bit depth : 16 bits
Compression mode : Lossy
Stream size : 347 MiB (13%)
Title : Original | DD 5.1 @ 448 kbps
Language : English
Service kind : Complete Main
Default : No
Forced : No
Audio #4
ID : 5
Format : AAC LC
Format/Info : Advanced Audio Codec Low Complexity
Codec ID : A_AAC-2
Duration : 1 h 48 min
Bit rate : 192 kb/s
Channel(s) : 2 channels
Channel layout : L R
Sampling rate : 44.1 kHz
Frame rate : 43.066 FPS (1024 SPF)
Compression mode : Lossy
Stream size : 151 MiB (6%)
Title : uzb(MUAH) my5tv
Language : Russian
Default : No
Forced : Yes
Audio #5
ID : 6
Format : AAC LC
Format/Info : Advanced Audio Codec Low Complexity
Codec ID : A_AAC-2
Duration : 1 h 48 min
Bit rate : 192 kb/s
Channel(s) : 2 channels
Channel layout : L R
Sampling rate : 44.1 kHz
Frame rate : 43.066 FPS (1024 SPF)
Compression mode : Lossy
Stream size : 151 MiB (6%)
Title : uzb(MUAH) my5tv
Language : Russian
Default : No
Forced : Yes
Text #1
ID : 7
Format : UTF-8
Codec ID : S_TEXT/UTF8
Codec ID/Info : UTF-8 Plain Text
Duration : 10 s 0 ms
Bit rate : 36 b/s
Count of elements : 1
Stream size : 45.0 Bytes (0%)
Title : reliz
Language : Russian
Default : Yes
Forced : Yes
Text #2
ID : 8
Format : UTF-8
Codec ID : S_TEXT/UTF8
Codec ID/Info : UTF-8 Plain Text
Duration : 1 h 41 min
Bit rate : 64 b/s
Count of elements : 899
Stream size : 47.9 KiB (0%)
Language : Russian
Default : No
Forced : No
Text #3
ID : 9
Format : UTF-8
Codec ID : S_TEXT/UTF8
Codec ID/Info : UTF-8 Plain Text
Duration : 1 h 41 min
Bit rate : 40 b/s
Count of elements : 962
Stream size : 30.1 KiB (0%)
Title : Full
Language : English
Default : No
Forced : No
Text #4
ID : 10
Format : UTF-8
Codec ID : S_TEXT/UTF8
Codec ID/Info : UTF-8 Plain Text
Duration : 1 h 42 min
Bit rate : 45 b/s
Count of elements : 1138
Stream size : 33.7 KiB (0%)
Title : SDH
Language : English
Default : No
Forced : No
Text #5
ID : 11
Format : UTF-8
Codec ID : S_TEXT/UTF8
Codec ID/Info : UTF-8 Plain Text
Duration : 1 h 42 min
Bit rate : 55 b/s
Count of elements : 1138
Stream size : 41.2 KiB (0%)
Title : SDH-Colored
Language : English
Default : No
Forced : No
LAVHALAR
Profil ShX
Xabarlarni ko‘rsatish:    

Hozirgi vaqt: 29-May 06:09

Vaqtlar farqi: UTC + 5



Siz mavzu yaratishingiz mumkin emas
Siz xabarlarga javob qaytarishingiz mumkin emas
Siz o‘z xabarlaringizni tahrirlashingiz mumkin emas
Siz o‘z xabarlaringizni o‘chirishingiz mumkin emas
Siz so‘rovlarda ovoz berishingiz mumkin emas
Siz xabalarga fayllarni biriktirishingiz mumkin emas
Siz fayllarni ko‘chirishingiz mumkin emas