˂
˃
Tarqatmalar statistikasi
Ko‘chiraman: [ 1 ]
Ko‘chirmoqdaman: [ 1 ]
Ko‘chirib bo‘ldim: [ 30 ]
 
     
 
 

Ahmadullo ®

Jins:
Yigit
Staj:
7 oy 5 kun
Xabarlar:
72
Taqiq:

Terminator 6: Qorong'u taqdir |
Терминатор: Темные судьбы | Terminator: Dark Fate

--Chiqqan yili: 2019
Davlat: AQSH,Xitoy
Janr: Fantastika,Jangari,Sarguzasht
Davomiyligi: 02:08:06
Tarjima: Professional MY5 O'zbek tilida
Tarjima 2: Professional (Original) Ingliz tilida--Rejissyor: Tim Miller--Rollarda: Arnold Shvartsenegger, Makkenzi Devis, Linda Xemilton, Edvard Furlong, Gabriel Luna, Natalya Reyes, Tom Xopper, Kassandra Starr, Brett Hazard, Diego Boneta, Alisiya Borrachero, Enrike Arce, Stiven Kri, Ferran Fernandes--Film Haqida: Sara Connor terminatorlarning haqiqiy ovchisiga aylandi va endi kelajakdan qotil robotlarni yo'q qilish bilan shug'ullanadi. U eng muhimi, ularga jonga etib borishlariga yo'l qo'ymaslik kerak, deb hisoblaydi, ammo endi Dani Ramos paydo bo'ldi, uning omon qolishi ham insoniyat taqdiriga bog'liq. U bilan birga, sirli qiz Greys, inson va mashina aralashmasi jangga kiradi.--Videoning sifati: WEB-DL 1080p
Video format: MKV-Video: HEVC Video (H265) 1920x800 23.976fps 6 034 kb/s
Audio: AAC 44000Hz stereo O'zbek tili
Audio 2: DD+ 48000Hz 6ch 9216kbps Ing tili
Subtitrlar: Ing tilida--

Media Info

General
Format : Matroska
Format version : Version 4
File size : 6.15 GiB
Duration : 2 h 8 min
Overall bit rate : 6 872 kb/s
Encoded date : UTC 2020-01-17 09:30:54
Writing application : mkvmerge v21.0.0 ('Tardigrades Will Inherit The Earth') 64-bit
Writing library : libebml v1.3.5 + libmatroska v1.4.8
Video
ID : 1
Format : HEVC
Format/Info : High Efficiency Video Coding
Format profile : Main@L4@High
Codec ID : V_MPEGH/ISO/HEVC
Duration : 2 h 8 min
Bit rate : 6 034 kb/s
Width : 1 920 pixels
Height : 1 080 pixels
Display aspect ratio : 16:9
Frame rate mode : Constant
Frame rate : 23.976 (24000/1001) FPS
Color space : YUV
Chroma subsampling : 4:2:0
Bit depth : 8 bits
Bits/(Pixel*Frame) : 0.121
Stream size : 5.40 GiB (88%)
Default : Yes
Forced : No
Audio #1
ID : 2
Format : AAC LC
Format/Info : Advanced Audio Codec Low Complexity
Codec ID : A_AAC-2
Duration : 2 h 8 min
Bit rate : 192 kb/s
Channel(s) : 2 channels
Channel layout : L R
Sampling rate : 44.1 kHz
Frame rate : 43.066 FPS (1024 SPF)
Compression mode : Lossy
Stream size : 179 MiB (3%)
Title : uzb(MUAH)my5tv
Language : Russian
Default : Yes
Forced : Yes
Audio #2
ID : 3
Format : E-AC-3
Format/Info : Enhanced AC-3
Commercial name : Dolby Digital Plus
Codec ID : A_EAC3
Duration : 2 h 8 min
Bit rate mode : Constant
Bit rate : 640 kb/s
Channel(s) : 6 channels
Channel layout : L R C LFE Ls Rs
Sampling rate : 48.0 kHz
Frame rate : 31.250 FPS (1536 SPF)
Compression mode : Lossy
Stream size : 586 MiB (9%)
Language : English
Service kind : Complete Main
Default : No
Forced : No
Text #1
ID : 4
Format : UTF-8
Codec ID : S_TEXT/UTF8
Codec ID/Info : UTF-8 Plain Text
Duration : 10 s 0 ms
Bit rate : 36 b/s
Count of elements : 1
Stream size : 45.0 Bytes (0%)
Title : reliz
Language : Russian
Default : Yes
Forced : Yes
Text #2
ID : 5
Format : UTF-8
Codec ID : S_TEXT/UTF8
Codec ID/Info : UTF-8 Plain Text
Duration : 1 h 57 min
Bit rate : 32 b/s
Count of elements : 1121
Stream size : 27.9 KiB (0%)
Language : English
Default : No
Forced : No
LAVHALAR
Profil ShX

Gr@nd

Jins:
Yigit
Staj:
2 yil 8 oy
Xabarlar:
178

Qayerdan: Jizzax Forish

Taqiq:

Raxmad Sizga Ishingizga rivoj shu kino'ni tayyorlasan mikan deb turgan edim endi shartmas xamisha omad yor bo'lsin

Mavzu yaratish 17-Yan-2020 22:48 (8 soat o‘tgach)

Iqitibos

Profil ShX

Ahmadullo ®

Jins:
Yigit
Staj:
7 oy 5 kun
Xabarlar:
72
Taqiq:

SALOMAT BO'LING )

Mavzu yaratish 18-Yan-2020 11:50 (13 soat o‘tgach)

Iqitibos

Profil ShX

Siroj Ruzimuratov

Jins:
Yigit
Staj:
10 oy 24 kun
Xabarlar:
5

Qayerdan: Uzbekistan, Cizah

Taqiq:

Yoshlar shartta kinoni skachat qilib qochish yo'q oxirigacha turila))

Mavzu yaratish 18-Yan-2020 18:04 (6 soat o‘tgach)

Iqitibos

Profil ShX

Soft-Release

Jins:
Yigit
Staj:
2 yil 2 oy
Xabarlar:
857

Qayerdan: Kattakurgan

Taqiq:

8892Yoshlar shartta kinoni skachat qilib qochish yo'q oxirigacha turila))
Siroj Ruzimuratov, O'zlariyu Yuklab Shartta Qochadigan ag

Mavzu yaratish 19-Yan-2020 16:07 (22 soat o‘tgach)

Iqitibos

Profil ShX

Ahmadullo ®

Jins:
Yigit
Staj:
7 oy 5 kun
Xabarlar:
72
Taqiq:

8895
8892Yoshlar shartta kinoni skachat qilib qochish yo'q oxirigacha turila))
Siroj Ruzimuratov, O'zlariyu Yuklab Shartta Qochadigan ag
ag
ag ag ag ag

Mavzu yaratish 20-Yan-2020 18:08 (1 kun 2 soat o‘tgach)

Iqitibos

Profil ShX
Xabarlarni ko‘rsatish:    

Hozirgi vaqt: 29-May 04:53

Vaqtlar farqi: UTC + 5



Siz mavzu yaratishingiz mumkin emas
Siz xabarlarga javob qaytarishingiz mumkin emas
Siz o‘z xabarlaringizni tahrirlashingiz mumkin emas
Siz o‘z xabarlaringizni o‘chirishingiz mumkin emas
Siz so‘rovlarda ovoz berishingiz mumkin emas
Siz xabalarga fayllarni biriktirishingiz mumkin emas
Siz fayllarni ko‘chirishingiz mumkin emas