˂
˃
Tarqatmalar statistikasi
Ko‘chirmoqdaman: [ 1 ]
Ko‘chirib bo‘ldim: [ 24 ]
 
     
 
 

Abdulloh ®

Jins:
Ko‘rsatilmagan
Staj:
2 yil 4 oy
Xabarlar:
49
Taqiq:

Aeronavtlar | Аэронавты | The Aeronauts Chiqqan yili: 2019
Davlat: AQSH , Buyuk Britaniya
Janr: Sarguzasht, Romantika, Drama, Biografiya
Davomiyligi:01:40:29


Tarjima: Professional (dublyaj qilingan) [O'zbekiston]
Rejissiyor: Tom Harper
Rollarda: Feliks Jons, Eddi Redmayne, Ximish Patel, Levin Lloyd, Fibu Foks, Tim MakInni, An Reid, Tom Kortni, Rebekka fronti, Vinsent Peres, Robert Glenister, Julian Ferro, Jon Teylor, Tomas Arnold, Kamil Lemesevskiy, Andy Mialsala
Film Haqida:
London 1862 yil. U jozibali, badavlat yosh ayol, uchib ketayotgan sharlarga ishtiyoqlidir. U meteorolog tadqiqotchisi bo'lib, ilmiy yutuqlarni amalga oshirish uchun hamma narsaga tayyor. Taqdirning o'zi tarixdagi har kimdan balandroq bo'lish uchun taqdirlangan. Birgalikda ular umidsiz sayohat bilan, bo'ron va momaqaldiroq orqali, havo yupqa va omon qolish imkoniyati kam bo'lgan noma'lum dunyoning chekkasiga boradilar ...
Videoning sifati: WEBRip 1080p HEVC 10 bit
Format video : MKV
Video: HVC1 1920x1040 23.976fps
Audio #1: Dolby AC3 48000Hz 6ch 384kbps [rus]
Audio #2: AAC 48000Hz 6ch [eng]
Audio #3: MP3 44100Hz stereo 320kbps O'zbekistonTV [uzb]

Media Info

General
Unique ID : 259694757034105168702208006571397681521 (0xC35F6411D758CE5498675CE81D531171)
Complete name : D:\Kino\Tarjima Kinolar HD\Aeronavtlar 2019.mkv
Format : Matroska
Format version : Version 4
File size : 1.72 GiB
Duration : 1 h 40 min
Overall bit rate : 2 453 kb/s
Movie name : The.Aeronauts.2019.WEBRip 1080p HEVC 10bit.Alltor.mkv
Encoded date : UTC 2020-01-15 16:28:13
Writing application : mkvmerge v42.0.0 ('Overtime') 64-bit
Writing library : libebml v1.3.10 + libmatroska v1.5.2
Video
ID : 1
Format : HEVC
Format/Info : High Efficiency Video Coding
Format profile : Main 10@L4@Main
Codec ID : V_MPEGH/ISO/HEVC
Duration : 1 h 40 min
Bit rate : 1 500 kb/s
Width : 1 920 pixels
Height : 1 040 pixels
Display aspect ratio : 1.85:1
Frame rate mode : Constant
Frame rate : 23.976 (24000/1001) FPS
Color space : YUV
Chroma subsampling : 4:2:0
Bit depth : 10 bits
Bits/(Pixel*Frame) : 0.031
Stream size : 1.05 GiB (61%)
Writing library : x265 3.2+9-971180b100f8:[Windows][MSVC 1923][64 bit] 10bit
Encoding settings : cpuid=1111039 / frame-threads=3 / numa-pools=12 / wpp / no-pmode / no-pme / no-psnr / ssim / log-level=2 / input-csp=1 / input-res=1920x1040 / interlace=0 / total-frames=144561 / level-idc=0 / high-tier=1 / uhd-bd=0 / ref=4 / no-allow-non-conformance / no-repeat-headers / annexb / no-aud / no-hrd / info / hash=0 / no-temporal-layers / open-gop / min-keyint=23 / keyint=250 / gop-lookahead=0 / bframes=8 / b-adapt=2 / b-pyramid / bframe-bias=40 / rc-lookahead=80 / lookahead-slices=4 / scenecut=40 / radl=0 / no-splice / no-intra-refresh / ctu=64 / min-cu-size=8 / rect / no-amp / max-tu-size=32 / tu-inter-depth=1 / tu-intra-depth=1 / limit-tu=0 / rdoq-level=2 / dynamic-rd=0.00 / ssim-rd / signhide / no-tskip / nr-intra=0 / nr-inter=0 / constrained-intra / strong-intra-smoothing / max-merge=5 / limit-refs=3 / limit-modes / me=3 / subme=7 / merange=57 / temporal-mvp / no-frame-dup / no-hme / weightp / no-weightb / no-analyze-src-pics / deblock=0:0 / sao / no-sao-non-deblock / rd=4 / selective-sao=4 / early-skip / rskip / no-fast-intra / no-tskip-fast / no-cu-lossless / no-b-intra / splitrd-skip / rdpenalty=0 / psy-rd=2.50 / psy-rdoq=1.50 / no-rd-refine / no-lossless / cbqpoffs=0 / crqpoffs=0 / rc=abr / bitrate=1500 / qcomp=0.60 / qpstep=4 / stats-write=0 / stats-read=2 / cplxblur=20.0 / qblur=0.5 / ipratio=1.40 / pbratio=1.30 / aq-mode=3 / aq-strength=0.40 / cutree / zone-count=0 / no-strict-cbr / qg-size=32 / no-rc-grain / qpmax=69 / qpmin=0 / no-const-vbv / sar=0 / overscan=0 / videoformat=5 / range=0 / colorprim=2 / transfer=2 / colormatrix=1 / chromaloc=0 / display-window=0 / cll=0,0 / min-luma=0 / max-luma=1023 / log2-max-poc-lsb=8 / vui-timing-info / vui-hrd-info / slices=1 / no-opt-qp-pps / no-opt-ref-list-length-pps / multi-pass-opt-rps / scenecut-bias=0.05 / no-opt-cu-delta-qp / no-aq-motion / no-hdr / no-hdr-opt / no-dhdr10-opt / no-idr-recovery-sei / analysis-reuse-level=10 / scale-factor=0 / refine-intra=0 / refine-inter=0 / refine-mv=1 / refine-ctu-distortion=0 / limit-sao / ctu-info=0 / no-lowpass-dct / refine-analysis-type=0 / copy-pic=1 / max-ausize-factor=1.0 / no-dynamic-refine / no-single-sei / no-hevc-aq / no-svt / no-field / qp-adaptation-range=1.00
Default : Yes
Forced : No
Color range : Limited
Matrix coefficients : BT.709
Audio #1
ID : 2
Format : AC-3
Format/Info : Audio Coding 3
Commercial name : Dolby Digital
Codec ID : A_AC3
Duration : 1 h 40 min
Bit rate mode : Constant
Bit rate : 384 kb/s
Channel(s) : 6 channels
Channel layout : L R C LFE Ls Rs
Sampling rate : 48.0 kHz
Frame rate : 31.250 FPS (1536 SPF)
Compression mode : Lossy
Stream size : 276 MiB (16%)
Title : MVO Mallorn
Language : Russian
Service kind : Complete Main
Default : No
Forced : No
Audio #2
ID : 3
Format : AAC LC
Format/Info : Advanced Audio Codec Low Complexity
Codec ID : A_AAC-2
Duration : 1 h 40 min
Bit rate : 247 kb/s
Channel(s) : 6 channels
Channel layout : C L R Ls Rs LFE
Sampling rate : 48.0 kHz
Frame rate : 46.875 FPS (1024 SPF)
Compression mode : Lossy
Delay relative to video : 9 ms
Stream size : 177 MiB (10%)
Title : Original
Language : English
Default : No
Forced : No
Audio #3
ID : 4
Format : MPEG Audio
Format version : Version 1
Format profile : Layer 3
Format settings : Joint stereo
Codec ID : A_MPEG/L3
Codec ID/Hint : MP3
Duration : 1 h 40 min
Bit rate mode : Constant
Bit rate : 320 kb/s
Channel(s) : 2 channels
Sampling rate : 44.1 kHz
Frame rate : 38.281 FPS (1152 SPF)
Compression mode : Lossy
Stream size : 230 MiB (13%)
Title : O'zbek Tilida A - Studio
Language : Uzbek
Default : Yes
Forced : Yes
Menu
00:00:00.000 : en:Studio Logo
00:00:39.000 : en:Acknowledgement
00:00:44.000 : en:Doubt is there to be listened to
00:03:39.000 : en:Title Sequence
00:03:46.000 : en:Preparing for flight
00:09:54.000 : en:Flying over London
00:14:13.000 : en:James wants to makes a scientific impact
00:18:37.000 : en:The safest way is up
00:27:27.000 : en:The silence of the upper atmosphere
00:32:23.000 : en:A proposal to rewrite the rules of the air
00:40:14.000 : en:Opening up about Pierre
00:45:15.000 : en:The truth about fear and loss
00:52:51.000 : en:Risking everything to break records
00:59:09.000 : en:Facing her fear
01:02:04.000 : en:The truth about Pierre
01:07:17.000 : en:The dangers of thin air
01:15:26.000 : en:Waiting for the descent
01:23:13.000 : en:Bringing the stars closer
01:26:04.000 : en:Quick thinking to save lives
01:31:32.000 : en:All in the name of discovery
01:36:28.000 : en:End Credits

Lavhalar

.torrent yuklash

Yuqori tezlikda va bepul ko‘chirish!

Qanday yuklab olinadi? · Torrent nima o‘zi? · Reyting va cheklovlar

Profil ShX
Xabarlarni ko‘rsatish:    

Hozirgi vaqt: 25-Fev 20:46

Vaqtlar farqi: UTC + 5



Siz mavzu yaratishingiz mumkin emas
Siz xabarlarga javob qaytarishingiz mumkin emas
Siz o‘z xabarlaringizni tahrirlashingiz mumkin emas
Siz o‘z xabarlaringizni o‘chirishingiz mumkin emas
Siz so‘rovlarda ovoz berishingiz mumkin emas
Siz xabalarga fayllarni biriktirishingiz mumkin emas
Siz fayllarni ko‘chirishingiz mumkin emas