˂
˃
Tarqatmalar statistikasi
Ko‘chirmoqdaman: [ 2 ]
Ko‘chirib bo‘ldim: [ 14 ]
 
     
 
 

Abdulloh ®

Jins:
Ko‘rsatilmagan
Staj:
2 yil 7 oy
Xabarlar:
51
Taqiq:

Ford Ferrariga Qarshi | Ford против Ferrari | Ford v Ferrari Chiqqan yili: 2019
Davlat: Fransiya , AQSH
Janr: Biografiya, sport, drama
Davomiyligi: 02:32:43


Tarjima: Professional (dublyaj qilingan) [MY5]
Rejissiyor: James Mangold
Rollarda: Kristian Beyl, Mett Deymon, Katrina Balf, Treysi Leyts, Djon Burntal, Nuh Joop, Josh Lukas, Remo Girona, Rey MakKinnon, DjJ Fild
Film Haqida: Film 1960-yillarning o'rtalarida Frantsiyada bo'lib o'tgan Jahon chempionatida Ferrari bilan raqobatlasha oladigan mutlaqo yangi sport avtomobili yaratishga da'vat etgan amerikalik avtomobil dizayneri Kerroll Shelbi va jasur britaniyalik poygachi Ken Mayllarning o'zaro munosabatlari haqida.
Videoning sifati: WEB-DL
Format video : MKV
Video: MPEG4 Video (H264) 1280x532 23.976fps
Audio #1: Dolby AC3 48000Hz stereo [rus]
Audio #2: MP3 44100Hz stereo 320kbps MY5 [uzb]

Media Info

General
Unique ID : 232035446206624610094420964280298759915 (0xAE9066C234EAD8C3A9738370E64DE6EB)
Complete name : D:\Kino\Ford v Ferrari. 2019 (1).mkv
Format : Matroska
Format version : Version 4
File size : 3.35 GiB
Duration : 2 h 32 min
Overall bit rate : 3 139 kb/s
Encoded date : UTC 2020-01-15 04:39:27
Writing application : mkvmerge v42.0.0 ('Overtime') 64-bit
Writing library : libebml v1.3.10 + libmatroska v1.5.2
Video
ID : 1
Format : AVC
Format/Info : Advanced Video Codec
Format profile : High@L3.1
Format settings : CABAC / 4 Ref Frames
Format settings, CABAC : Yes
Format settings, Reference fra : 4 frames
Codec ID : V_MPEG4/ISO/AVC
Duration : 2 h 32 min
Bit rate : 2 593 kb/s
Width : 1 280 pixels
Height : 532 pixels
Display aspect ratio : 2.40:1
Frame rate mode : Constant
Frame rate : 23.976 (24000/1001) FPS
Color space : YUV
Chroma subsampling : 4:2:0
Bit depth : 8 bits
Scan type : Progressive
Bits/(Pixel*Frame) : 0.159
Stream size : 2.77 GiB (83%)
Writing library : x264 core 142 r2495 6a301b6
Encoding settings : cabac=1 / ref=3 / deblock=1:0:0 / analyse=0x3:0x113 / me=hex / subme=7 / psy=1 / psy_rd=1.00:0.00 / mixed_ref=1 / me_range=16 / chroma_me=1 / trellis=1 / 8x8dct=1 / cqm=0 / deadzone=21,11 / fast_pskip=1 / chroma_qp_offset=-2 / threads=18 / lookahead_threads=3 / sliced_threads=0 / nr=0 / decimate=1 / interlaced=0 / bluray_compat=0 / constrained_intra=0 / bframes=3 / b_pyramid=2 / b_adapt=1 / b_bias=0 / direct=1 / weightb=1 / open_gop=0 / weightp=2 / keyint=250 / keyint_min=23 / scenecut=40 / intra_refresh=0 / rc_lookahead=40 / rc=crf / mbtree=1 / crf=18.0 / qcomp=0.60 / qpmin=0 / qpmax=69 / qpstep=4 / vbv_maxrate=4000 / vbv_bufsize=6000 / crf_max=0.0 / nal_hrd=none / filler=0 / ip_ratio=1.40 / aq=1:1.00
Default : Yes
Forced : No
Color range : Limited
Color primaries : BT.709
Transfer characteristics : BT.709
Matrix coefficients : BT.709
Audio #1
ID : 2
Format : AC-3
Format/Info : Audio Coding 3
Commercial name : Dolby Digital
Codec ID : A_AC3
Duration : 2 h 32 min
Bit rate mode : Constant
Bit rate : 224 kb/s
Channel(s) : 2 channels
Channel layout : L R
Sampling rate : 48.0 kHz
Frame rate : 31.250 FPS (1536 SPF)
Compression mode : Lossy
Stream size : 245 MiB (7%)
Title : HDRezka Studio (rus)
Service kind : Complete Main
Default : Yes
Forced : No
Audio #2
ID : 3
Format : MPEG Audio
Format version : Version 1
Format profile : Layer 3
Format settings : Joint stereo
Codec ID : A_MPEG/L3
Codec ID/Hint : MP3
Duration : 2 h 32 min
Bit rate mode : Constant
Bit rate : 320 kb/s
Channel(s) : 2 channels
Sampling rate : 44.1 kHz
Frame rate : 38.281 FPS (1152 SPF)
Compression mode : Lossy
Stream size : 349 MiB (10%)
Default : No
Forced : No

Lavhalar

Profil ShX

Lock

Jins:
Yigit
Staj:
1 yil 7 oy
Xabarlar:
65

Qayerdan: Namangan

Taqiq:

Ovoz vapshe tushmaganku

Mavzu yaratish 06-Fev-2020 08:59 (21 kun o‘tgach)

Iqitibos

Profil ShX
Xabarlarni ko‘rsatish:    

Hozirgi vaqt: 26-May 10:19

Vaqtlar farqi: UTC + 5



Siz mavzu yaratishingiz mumkin emas
Siz xabarlarga javob qaytarishingiz mumkin emas
Siz o‘z xabarlaringizni tahrirlashingiz mumkin emas
Siz o‘z xabarlaringizni o‘chirishingiz mumkin emas
Siz so‘rovlarda ovoz berishingiz mumkin emas
Siz xabalarga fayllarni biriktirishingiz mumkin emas
Siz fayllarni ko‘chirishingiz mumkin emas