˂
˃
Tarqatmalar statistikasi
Ko‘chirmoqdaman: [ 1 ]
Ko‘chirib bo‘ldim: [ 3 ]
 
     
 
 

N.U.R.I.K.B.E.K ®

Jins:
Yigit
Staj:
2 yil 3 oy
Xabarlar:
590

Qayerdan: Jizzax. Paxtakor

Taqiq:

-Malefisenta | Малефисента | Maleficent
--Chiqqan yili: 2014
Davlat: AQSH, Buyuk Britaniya
Janr: Hayoliy, Oilaviy, Melodrama, Sarguzasht
Davomiyligi: 01:37:28
Tarjima: Professional MilliyTv O'zbek Tili
Tarjima: Professional iTunes Rus Tili
Tarjima: Professional Org Eng Tili--Rejissyor: Robert Strombert.--Rollarda: Anjelina Joli, Al-Fanning, Sharlto Copley, Leslie Manville, Imelda Stonton, Juno Temple, Sam Riley, Brenton Tuates, Sara Fland, Kennet Krenham--Tavsif: Malefisentning yosh sehrgarlari ajoyib jonzotlar bilan o'rab olingan sehrlangan o'rmonda yolg'iz hayot kechirishdi, lekin bir kun hamma narsa o'zgardi ... uning dunyosiga vayronagarchilik va betartiblikni keltirib chiqargan odamlar bosib olindi va Malefisente o'z fuqarolarini himoya qilish uchun turishga majbur bo'ldi. kuchli qorong'u kuchlar.--Videoning sifati: BDRip 1080p HEVC 10Bit
Video format: MKV--Video: HVC1 1920x800 23.976fps 2 230 kb/s
Audio: MP3 48000Hz stereo 128kbps Uzb
Audio 2: Dolby AC3 48000Hz 6ch 448kbps Rus
Audio 3: AAC 48000Hz 6ch Eng--

Media Info

General
Format : Matroska
Format version : Version 4 / Version 2
File size : 2.14 GiB
Duration : 1 h 37 min
Overall bit rate : 3 148 kb/s
Movie name : Maleficent.2014.BDRip 1080p HEVC 10bit.Alltor.mkv
Encoded date : UTC 2020-01-14 07:41:26
Writing application : mkvmerge v15.0.0 ('Duel with the Devil') 64-bit
Writing library : libebml v1.3.5 + libmatroska v1.4.5
Video
ID : 1
Format : HEVC
Format/Info : High Efficiency Video Coding
Format profile : Main 10@L4@Main
Codec ID : V_MPEGH/ISO/HEVC
Duration : 1 h 37 min
Bit rate : 2 230 kb/s
Width : 1 920 pixels
Height : 800 pixels
Display aspect ratio : 2.40:1
Frame rate mode : Constant
Frame rate : 23.976 (24000/1001) FPS
Color space : YUV
Chroma subsampling : 4:2:0
Bit depth : 10 bits
Bits/(Pixel*Frame) : 0.061
Stream size : 1.52 GiB (71%)
Writing library : x265 1.9+140-34a3d35c5f97:[Windows][GCC 5.3.0][64 bit] 10bit
Default : Yes
Forced : No
Audio #1
ID : 2
Format : MPEG Audio
Format version : Version 1
Format profile : Layer 3
Mode : Joint stereo
Codec ID : A_MPEG/L3
Codec ID/Hint : MP3
Duration : 1 h 37 min
Bit rate mode : Constant
Bit rate : 128 kb/s
Channel(s) : 2 channels
Sampling rate : 48.0 kHz
Frame rate : 41.667 FPS (1152 SPF)
Compression mode : Lossy
Stream size : 89.2 MiB (4%)
Title : Uzb
Writing library : LAME3.99.5ЄЄЄЄЄЄЄЄЄЄ
Language : Uzbek
Default : Yes
Forced : Yes
Audio #2
ID : 3
Format : AC-3
Format/Info : Audio Coding 3
Format settings, Endianness : Big
Codec ID : A_AC3
Duration : 1 h 37 min
Bit rate mode : Constant
Bit rate : 448 kb/s
Channel(s) : 6 channels
Channel positions : Front: L C R, Side: L R, LFE
Sampling rate : 48.0 kHz
Frame rate : 31.250 FPS (1536 SPF)
Bit depth : 16 bits
Compression mode : Lossy
Stream size : 312 MiB (14%)
Title : Rus
Language : Russian
Service kind : Complete Main
Default : No
Forced : Yes
Audio #3
ID : 4
Format : AAC
Format/Info : Advanced Audio Codec
Format profile : LC
Codec ID : A_AAC
Duration : 1 h 37 min
Bit rate : 339 kb/s
Channel(s) : 6 channels
Channel positions : Front: L C R, Side: L R, LFE
Sampling rate : 48.0 kHz
Frame rate : 46.875 FPS (1024 SPF)
Compression mode : Lossy
Delay relative to video : 20 ms
Stream size : 237 MiB (11%)
Title : Eng
Language : English
Default : No
Forced : Yes
LAVHALAR
.torrent yuklash

Yuqori tezlikda va bepul ko‘chirish!

Qanday yuklab olinadi? · Torrent nima o‘zi? · Reyting va cheklovlar

Profil ShX
Xabarlarni ko‘rsatish:    

Hozirgi vaqt: 25-Fev 21:40

Vaqtlar farqi: UTC + 5



Siz mavzu yaratishingiz mumkin emas
Siz xabarlarga javob qaytarishingiz mumkin emas
Siz o‘z xabarlaringizni tahrirlashingiz mumkin emas
Siz o‘z xabarlaringizni o‘chirishingiz mumkin emas
Siz so‘rovlarda ovoz berishingiz mumkin emas
Siz xabalarga fayllarni biriktirishingiz mumkin emas
Siz fayllarni ko‘chirishingiz mumkin emas