˂
˃
Tarqatmalar statistikasi
Ko‘chirmoqdaman: [ 7 ]
Ko‘chirib bo‘ldim: [ 13 ]
 
     
 
 

UmarShoh ®

Jins:
Yigit
Staj:
1 yil 11 oy
Xabarlar:
412
Taqiq:

-Tush Qo'riqchilari / Хранители снов / Rise of the Guardians-- -Chiqqan yili: 2012
Davlat: AQSH
Janr: Multfilm, sarguzasht, oilaviy
Davomiyligi: 01:37:11
Tarjima: Professional (My5 telekanali) o'zbek tilida-Rejissyor: Peter Ramsey
Rollarni ovozlashtirganlar:Chris Pine, Alec Baldwin, Jude Law, Isla Fisher, Hugh Jackman, Dakota Goyo, Hamani Griffin, Camille MacFedden, Georgie Greave, Emily Nordwind.-Tavsif:
Tavsif: Kromeshnik yovuz ruhi bolalik orzulariga tushganda, Northerner, Muz Jek, Quyon, Tish Peri va Sandman birinchi bo'lib "Dream Keepers" jamoasini yaratish uchun yig'ilishadi ...-Videoning sifati: BDRip HEVC 1080p 10 bit
Video format: MKV
Video: HEVC 1920x1080 23.976fps 5000 Kbps
Audio #1: MP3, 48000Hz stereo 2ch 128 Kbps O'zbek tilida
Audio #2: AAC LC, 8 ch, 576 kbps, 48.0 kHz Inglizcha-

MediaInfo


General
Unique ID : 194663006897713983019571914895747014568 (0x9272BB3D59994DD08860A772608D5FA8)
Complete name : F:\Rise of the Guardians 2012 (1080p Bluray x265 HEVC 10bit AAC 7.1 Tigole)\Rise of the Guardians 2012 (1080p x265 10bit Tigole) s.mkv
Format : Matroska
Format version : Version 4
File size : 3.79 GiB
Duration : 1 h 37 min
Overall bit rate : 5 576 kb/s
Movie name : Rise of the Guardians
Encoded date : UTC 2020-01-11 14:20:29
Writing application : mkvmerge v42.0.0 ('Overtime') 64-bit
Writing library : libebml v1.3.10 + libmatroska v1.5.2
Video
ID : 1
Format : HEVC
Format/Info : High Efficiency Video Coding
Format profile : Main 10@L4@Main
Codec ID : V_MPEGH/ISO/HEVC
Duration : 1 h 37 min
Bit rate : 5 000 kb/s
Width : 1 920 pixels
Height : 1 080 pixels
Display aspect ratio : 16:9
Frame rate mode : Constant
Frame rate : 23.976 (24000/1001) FPS
Color space : YUV
Chroma subsampling : 4:2:0
Bit depth : 10 bits
Bits/(Pixel*Frame) : 0.101
Stream size : 3.39 GiB (90%)
Writing library : x265 2.5+22-8db95a1da9f8:[Windows][GCC 7.1.0][64 bit] 10bit
Encoding settings : cpuid=1173503 / frame-threads=3 / numa-pools=8 / wpp / no-pmode / no-pme / no-psnr / no-ssim / log-level=2 / input-csp=1 / input-res=1920x1080 / interlace=0 / total-frames=139826 / level-idc=0 / high-tier=1 / uhd-bd=0 / ref=4 / no-allow-non-conformance / no-repeat-headers / annexb / no-aud / no-hrd / info / hash=0 / no-temporal-layers / open-gop / min-keyint=23 / keyint=250 / bframes=4 / b-adapt=2 / b-pyramid / bframe-bias=0 / rc-lookahead=25 / lookahead-slices=4 / scenecut=40 / no-intra-refresh / ctu=64 / min-cu-size=8 / rect / no-amp / max-tu-size=32 / tu-inter-depth=1 / tu-intra-depth=1 / limit-tu=0 / rdoq-level=2 / dynamic-rd=0.00 / no-ssim-rd / signhide / no-tskip / nr-intra=0 / nr-inter=0 / no-constrained-intra / strong-intra-smoothing / max-merge=3 / limit-refs=3 / limit-modes / me=3 / subme=3 / merange=57 / temporal-mvp / weightp / no-weightb / no-analyze-src-pics / deblock=0:0 / sao / no-sao-non-deblock / rd=4 / no-early-skip / rskip / no-fast-intra / no-tskip-fast / no-cu-lossless / no-b-intra / no-splitrd-skip / rdpenalty=0 / psy-rd=2.00 / psy-rdoq=1.00 / no-rd-refine / analysis-reuse-mode=0 / no-lossless / cbqpoffs=0 / crqpoffs=0 / rc=abr / bitrate=5000 / qcomp=0.60 / qpstep=4 / stats-write=0 / stats-read=2 / cplxblur=20.0 / qblur=0.5 / ipratio=1.40 / pbratio=1.30 / aq-mode=2 / aq-strength=1.00 / cutree / zone-count=0 / no-strict-cbr / qg-size=32 / no-rc-grain / qpmax=69 / qpmin=0 / no-const-vbv / sar=0 / overscan=0 / videoformat=5 / range=0 / colorprim=2 / transfer=2 / colormatrix=2 / chromaloc=0 / display-window=0 / max-cll=0,0 / min-luma=0 / max-luma=1023 / log2-max-poc-lsb=8 / vui-timing-info / vui-hrd-info / slices=1 / opt-qp-pps / opt-ref-list-length-pps / no-multi-pass-opt-rps / scenecut-bias=0.05 / no-opt-cu-delta-qp / no-aq-motion / no-hdr / no-hdr-opt / no-dhdr10-opt / analysis-reuse-level=5 / scale-factor=0 / refine-intra=0 / refine-inter=0 / refine-mv=0 / no-limit-sao / ctu-info=0
Default : Yes
Forced : No
Audio
ID : 2
Format : AAC LC
Format/Info : Advanced Audio Codec Low Complexity
Codec ID : A_AAC-2
Duration : 1 h 37 min
Bit rate : 576 kb/s
Channel(s) : 8 channels
Channel layout : C L R Ls Rs Lb Rb LFE
Sampling rate : 48.0 kHz
Frame rate : 46.875 FPS (1024 SPF)
Compression mode : Lossy
Delay relative to video : 20 ms
Stream size : 395 MiB (10%)
Language : English
Default : Yes
Forced : No
Text
ID : 3
Format : VobSub
Muxing mode : zlib
Codec ID : S_VOBSUB
Codec ID/Info : Picture based subtitle format used on DVDs
Duration : 1 h 27 min
Bit rate : 8 375 b/s
Count of elements : 1175
Stream size : 5.25 MiB (0%)
Language : English
Default : No
Forced : No
Menu
00:00:00.000 : en:Chapter 01
00:03:51.481 : en:Chapter 02
00:10:34.842 : en:Chapter 03
00:16:17.643 : en:Chapter 04
00:24:49.362 : en:Chapter 05
00:30:38.378 : en:Chapter 06
00:36:38.946 : en:Chapter 07
00:43:05.165 : en:Chapter 08
00:50:22.310 : en:Chapter 09
00:58:09.611 : en:Chapter 10
01:03:55.331 : en:Chapter 11
01:09:12.815 : en:Chapter 12
01:14:03.188 : en:Chapter 13
01:20:44.923 : en:Chapter 14
01:24:51.503 : en:Chapter 15
01:28:33.891 : en:Chapter 16
.torrent yuklash

Yuqori tezlikda va bepul ko‘chirish!

Qanday yuklab olinadi? · Torrent nima o‘zi? · Reyting va cheklovlar

Profil ShX
Xabarlarni ko‘rsatish:    

Hozirgi vaqt: 25-Fev 20:24

Vaqtlar farqi: UTC + 5



Siz mavzu yaratishingiz mumkin emas
Siz xabarlarga javob qaytarishingiz mumkin emas
Siz o‘z xabarlaringizni tahrirlashingiz mumkin emas
Siz o‘z xabarlaringizni o‘chirishingiz mumkin emas
Siz so‘rovlarda ovoz berishingiz mumkin emas
Siz xabalarga fayllarni biriktirishingiz mumkin emas
Siz fayllarni ko‘chirishingiz mumkin emas