˂
˃
Tarqatmalar statistikasi
Ko‘chirmoqdaman: [ 2 ]
Ko‘chirib bo‘ldim: [ 8 ]
 
     
 
 

UmarShoh ®

Jins:
Yigit
Staj:
1 yil 11 oy
Xabarlar:
412
Taqiq:

-Grinch / Гринч / The Grinch-- -Chiqqan yili: 2018
Davlat: AQSh,Xitoy
Janr: Multfilm, sarguzasht, oilaviy
Davomiyligi: 01:25:49
Tarjima: Professional (My5 telekanali) o'zbek tilida-Rejissyorlar: Yarrow Cheney, Scott Mosier
Rollarni ovozlashtirganlar: Rashida Jones, Tristan Ohara, Scarlet Estevezb, Benedict Cumberbatch, Ramon Hamilton Angela, Lansburyb Cameron, Silib Kenan, Thompsonb Farrell Williams-Tavsif:Grinchning joyida bo'lgan har bir kishi yashil rangga aylanadi va g'azablanadi. Yaxshi introvert sifatida u har kimdan yiroqda tog'ning eng yuqori qismida joylashgan qorong'u g'orda yashaydi, ammo bu "barchalari" yangi yilni ulug'vor nishonlashga tayyorgarlik ko'rishmoqda. Ular shovqin qiladi, hamma narsani bezatadi va g'azablantiradi. Bayramni buzish zavqini kim rad etadi? Grinch Yangi yilni o'g'irlashga qaror qiladi.-Videoning sifati: BluRay HEVC 1080p 10 bit
Video format: MKV
Video: HEVC 1920x804 23.976fps 5067 Kbps
Audio #1: MP3, 48000Hz stereo 2ch 128 Kbps O'zbek tilida
Audio #2: AAC LC, 8 ch, 559 kbps, 48.0 kHz Inglizcha-

MediaInfo


General
Unique ID : 157439387934483560137771788937420276859 (0x7671B92155C3DDA676BBAF909607047B)
Complete name : The.Grinch.2018.BDRip.1080.HEVC.10bit.mkv
Format : Matroska
Format version : Version 4 / Version 2
File size : 3.61 GiB
Duration : 1 h 25 min
Overall bit rate : 6 029 kb/s
Movie name : Dr. Seuss' The Grinch
Encoded date : UTC 2019-03-22 01:37:54
Writing application : mkvmerge v22.0.0 ('At The End Of The World') 32-bit
Writing library : libebml v1.3.5 + libmatroska v1.4.8
Video
ID : 3
Format : HEVC
Format/Info : High Efficiency Video Coding
Format profile : Main 10@L4@Main
Codec ID : V_MPEGH/ISO/HEVC
Duration : 1 h 25 min
Bit rate : 5 067 kb/s
Width : 1 920 pixels
Height : 804 pixels
Display aspect ratio : 2.40:1
Frame rate mode : Constant
Frame rate : 23.976 (24000/1001) FPS
Color space : YUV
Chroma subsampling : 4:2:0
Bit depth : 10 bits
Bits/(Pixel*Frame) : 0.137
Stream size : 3.04 GiB (84%)
Writing library : x265 2.9+14-3023bd8b05c0:[Windows][GCC 8.2.1][64 bit] 10bit
Encoding settings : cpuid=1111039 / frame-threads=3 / numa-pools=8 / wpp / no-pmode / no-pme / no-psnr / no-ssim / log-level=2 / input-csp=1 / input-res=1920x804 / interlace=0 / total-frames=123456 / level-idc=0 / high-tier=1 / uhd-bd=0 / ref=4 / no-allow-non-conformance / no-repeat-headers / annexb / no-aud / no-hrd / info / hash=0 / no-temporal-layers / open-gop / min-keyint=23 / keyint=250 / gop-lookahead=0 / bframes=8 / b-adapt=2 / b-pyramid / bframe-bias=0 / rc-lookahead=25 / lookahead-slices=4 / scenecut=40 / radl=0 / no-splice / no-intra-refresh / ctu=64 / min-cu-size=8 / rect / no-amp / max-tu-size=32 / tu-inter-depth=1 / tu-intra-depth=1 / limit-tu=0 / rdoq-level=2 / dynamic-rd=0.00 / no-ssim-rd / signhide / no-tskip / nr-intra=0 / nr-inter=0 / no-constrained-intra / strong-intra-smoothing / max-merge=3 / limit-refs=3 / limit-modes / me=3 / subme=3 / merange=57 / temporal-mvp / weightp / no-weightb / no-analyze-src-pics / deblock=0:0 / sao / no-sao-non-deblock / rd=4 / no-early-skip / rskip / no-fast-intra / no-tskip-fast / no-cu-lossless / no-b-intra / no-splitrd-skip / rdpenalty=0 / psy-rd=2.00 / psy-rdoq=1.00 / no-rd-refine / no-lossless / cbqpoffs=0 / crqpoffs=0 / rc=crf / crf=18.0 / qcomp=0.60 / qpstep=4 / stats-write=0 / stats-read=0 / ipratio=1.40 / pbratio=1.30 / aq-mode=3 / aq-strength=1.00 / cutree / zone-count=0 / no-strict-cbr / qg-size=32 / no-rc-grain / qpmax=69 / qpmin=0 / no-const-vbv / sar=0 / overscan=0 / videoformat=5 / range=0 / colorprim=2 / transfer=2 / colormatrix=2 / chromaloc=0 / display-window=0 / max-cll=0,0 / min-luma=0 / max-luma=1023 / log2-max-poc-lsb=8 / vui-timing-info / vui-hrd-info / slices=1 / no-opt-qp-pps / no-opt-ref-list-length-pps / no-multi-pass-opt-rps / scenecut-bias=0.05 / no-opt-cu-delta-qp / aq-motion / no-hdr / no-hdr-opt / no-dhdr10-opt / no-idr-recovery-sei / analysis-reuse-level=5 / scale-factor=0 / refine-intra=0 / refine-inter=0 / refine-mv=0 / no-limit-sao / ctu-info=0 / no-lowpass-dct / refine-mv-type=0 / copy-pic=1 / max-ausize-factor=1.0 / no-dynamic-refine / no-single-sei
Default : Yes
Forced : No
Audio #1
ID : 1
Format : AC-3
Format/Info : Audio Coding 3
Codec ID : A_AC3
Duration : 1 h 25 min
Bit rate mode : Constant
Bit rate : 384 kb/s
Channel(s) : 6 channels
Channel positions : Front: L C R, Side: L R, LFE
Sampling rate : 48.0 kHz
Frame rate : 31.250 FPS (1536 SPF)
Bit depth : 16 bits
Compression mode : Lossy
Stream size : 236 MiB (6%)
Service kind : Complete Main
Default : Yes
Forced : No
Audio #2
ID : 4
Format : AAC
Format/Info : Advanced Audio Codec
Format profile : LC
Codec ID : A_AAC-2
Duration : 1 h 25 min
Bit rate : 559 kb/s
Channel(s) : 8 channels
Channel positions : Front: L C R, Side: L R, Back: L R, LFE
Sampling rate : 48.0 kHz
Frame rate : 46.875 FPS (1024 SPF)
Compression mode : Lossy
Delay relative to video : 20 ms
Stream size : 343 MiB (9%)
Language : English
Default : No
Forced : No
Text #1
ID : 2
Format : UTF-8
Codec ID : S_TEXT/UTF8
Codec ID/Info : UTF-8 Plain Text
Duration : 1 h 17 min
Bit rate : 2 b/s
Count of elements : 27
Stream size : 1.14 KiB (0%)
Default : Yes
Forced : No
Text #2
ID : 5
Format : VobSub
Muxing mode : zlib
Codec ID : S_VOBSUB
Codec ID/Info : Picture based subtitle format used on DVDs
Duration : 1 h 20 min
Bit rate : 11.5 kb/s
Count of elements : 1304
Stream size : 6.60 MiB (0%)
Language : English
Default : No
Forced : No
Text #3
ID : 6
Format : VobSub
Muxing mode : zlib
Codec ID : S_VOBSUB
Codec ID/Info : Picture based subtitle format used on DVDs
Duration : 1 h 25 min
Bit rate : 7 706 b/s
Count of elements : 996
Stream size : 4.70 MiB (0%)
Language : French
Default : No
Forced : No
Text #4
ID : 7
Format : VobSub
Muxing mode : zlib
Codec ID : S_VOBSUB
Codec ID/Info : Picture based subtitle format used on DVDs
Duration : 1 h 24 min
Bit rate : 7 724 b/s
Count of elements : 1047
Stream size : 4.69 MiB (0%)
Language : Spanish
Default : No
Forced : No
Menu
00:00:00.000 : en:Chapter 01
00:05:40.298 : en:Chapter 02
00:10:35.926 : en:Chapter 03
00:14:14.103 : en:Chapter 04
00:17:45.105 : en:Chapter 05
00:22:19.880 : en:Chapter 06
00:26:28.336 : en:Chapter 07
00:30:45.176 : en:Chapter 08
00:34:46.584 : en:Chapter 09
00:38:37.189 : en:Chapter 10
00:44:40.928 : en:Chapter 11
00:47:27.678 : en:Chapter 12
00:52:37.404 : en:Chapter 13
00:56:33.181 : en:Chapter 14
01:01:04.994 : en:Chapter 15
01:05:34.639 : en:Chapter 16
01:07:23.456 : en:Chapter 17
01:12:14.913 : en:Chapter 18
01:14:12.781 : en:Chapter 19
01:18:08.308 : en:Chapter 20
.torrent yuklash

Yuqori tezlikda va bepul ko‘chirish!

Qanday yuklab olinadi? · Torrent nima o‘zi? · Reyting va cheklovlar

Profil ShX
Xabarlarni ko‘rsatish:    

Hozirgi vaqt: 25-Fev 20:09

Vaqtlar farqi: UTC + 5



Siz mavzu yaratishingiz mumkin emas
Siz xabarlarga javob qaytarishingiz mumkin emas
Siz o‘z xabarlaringizni tahrirlashingiz mumkin emas
Siz o‘z xabarlaringizni o‘chirishingiz mumkin emas
Siz so‘rovlarda ovoz berishingiz mumkin emas
Siz xabalarga fayllarni biriktirishingiz mumkin emas
Siz fayllarni ko‘chirishingiz mumkin emas