˂
˃
Tarqatmalar statistikasi
Ko‘chirib bo‘ldim: [ 5 ]
 
     
 
 

UmarShoh ®

Jins:
Yigit
Staj:
1 yil 11 oy
Xabarlar:
412
Taqiq:

Muz Yurak 2 | Холодное Cердце 2 | Frozen II
-Chiqqan yili: 2019
Davlat: AQSH
Janr: Multfilm, Musiqiy, Hayoliy, Komediya, Sarguzasht,
Davomiyligi: 01:43:13
Tarjima: Professional MilliyTV O'zbek Tili
Tarjima: Professional Org Ing Tili.-Rejissyor: Kris Bak, Jennifer Lee.-Rollarni ovozlashtirganlar: Idina Menzel, Kristen Bell, Jonatan Grof, Josh Gad, Sterling K. Braun, Evan Reychel Vud,
Alfred Molina, Marta Plimpton, Jeyson Ritter, Reychel Metyus-Tavsif: Anna, Elza, Kristof, uning sodiq kiyiklari Sven va hech qachon tushkunlikka tushmagan kardan odam Olaf Arendelle qirolligidan chiqib,
shimolga shimolga borishlari kerak, bu esa ularni qadimiy afsonalarning kelib chiqishiga olib keladi va
o'z ona yurtlarining o'tmishi sirlarini ochishga yordam beradi.-Videoning sifati: HDRip
Video format: MKV
Video: AVC 1920x1080 23.976fps 4200 kb/s
Audio: MP3 48000Hz stereo 128kbps Uzb
Audio 2: AC-3 48000Hz stereo 192kbps Eng

Media Info

General
Unique ID : 168834075924859246184914472482437004645 (0x7F04429F75B574270D46530A4926FD65)
Complete name : F:\Frozen.2.2019.KORSUB.1080p.HDRip.H264.AAC-RTM[TGx]\Frozen.2.2019.mkv
Format : Matroska
Format version : Version 4
File size : 3.26 GiB
Duration : 1 h 43 min
Overall bit rate mode : Variable
Overall bit rate : 4 516 kb/s
Movie name :
Encoded date : UTC 2020-01-07 15:17:44
Writing application : mkvmerge v42.0.0 ('Overtime') 64-bit
Writing library : libebml v1.3.10 + libmatroska v1.5.2
Video
ID : 1
Format : AVC
Format/Info : Advanced Video Codec
Format profile : Baseline@L4
Format settings : 1 Ref Frames
Format settings, CABAC : No
Format settings, Reference : 1 frame
Codec ID : V_MPEG4/ISO/AVC
Duration : 1 h 43 min
Bit rate : 4 200 kb/s
Width : 1 920 pixels
Height : 1 080 pixels
Display aspect ratio : 16:9
Frame rate mode : Constant
Frame rate : 23.976 (24000/1001) FPS
Color space : YUV
Chroma subsampling : 4:2:0
Bit depth : 8 bits
Scan type : Progressive
Bits/(Pixel*Frame) : 0.084
Stream size : 3.02 GiB (93%)
Writing library : x264 core 157 r2969 d4099dd
Encoding settings : cabac=0 / ref=1 / deblock=1:0:0 / analyse=0x1:0x111 / me=hex / subme=2 / psy=1 / psy_rd=1.00:0.00 / mixed_ref=0 / me_range=16 / chroma_me=1 / trellis=0 / 8x8dct=0 / cqm=0 / deadzone=21,11 / fast_pskip=1 / chroma_qp_offset=0 / threads=6 / lookahead_threads=2 / sliced_threads=0 / nr=0 / decimate=1 / interlaced=0 / bluray_compat=0 / constrained_intra=0 / bframes=0 / weightp=0 / keyint=250 / keyint_min=23 / scenecut=40 / intra_refresh=0 / rc_lookahead=10 / rc=abr / mbtree=1 / bitrate=4200 / ratetol=1.0 / qcomp=0.60 / qpmin=0 / qpmax=69 / qpstep=4 / ip_ratio=1.40 / aq=1:1.00
Default : Yes
Forced : No
Audio #1
ID : 2
Format : AC-3
Format/Info : Audio Coding 3
Commercial name : Dolby Digital
Codec ID : A_AC3
Duration : 1 h 43 min
Bit rate mode : Constant
Bit rate : 192 kb/s
Channel(s) : 2 channels
Channel layout : L R
Sampling rate : 48.0 kHz
Frame rate : 31.250 FPS (1536 SPF)
Compression mode : Lossy
Delay relative to video : -42 ms
Stream size : 142 MiB (4%)
Service kind : Complete Main
Default : Yes
Forced : No
Audio #2
ID : 3
Format : MPEG Audio
Format version : Version 1
Format profile : Layer 3
Format settings : Joint stereo / MS Stereo
Codec ID : A_MPEG/L3
Codec ID/Hint : MP3
Duration : 1 h 43 min
Bit rate mode : Variable
Bit rate : 128 kb/s
Channel(s) : 2 channels
Sampling rate : 48.0 kHz
Frame rate : 41.667 FPS (1152 SPF)
Compression mode : Lossy
Delay relative to video : -42 ms
Stream size : 94.5 MiB (3%)
Title : Uzb
Writing library : LAME3.99.5
Language : Uzbek
Default : No
Forced : Yes
.torrent yuklash

Yuqori tezlikda va bepul ko‘chirish!

Qanday yuklab olinadi? · Torrent nima o‘zi? · Reyting va cheklovlar

Profil ShX

Siroj Ruzimuratov

Jins:
Yigit
Staj:
7 oy 20 kun
Xabarlar:
4

Qayerdan: Uzbekistan, Cizah

Taqiq:

Razdacha turingda

Mavzu yaratish 08-Yan-2020 16:02 (19 soat o‘tgach)

Iqitibos

Profil ShX
Xabarlarni ko‘rsatish:    

Hozirgi vaqt: 25-Fev 20:17

Vaqtlar farqi: UTC + 5



Siz mavzu yaratishingiz mumkin emas
Siz xabarlarga javob qaytarishingiz mumkin emas
Siz o‘z xabarlaringizni tahrirlashingiz mumkin emas
Siz o‘z xabarlaringizni o‘chirishingiz mumkin emas
Siz so‘rovlarda ovoz berishingiz mumkin emas
Siz xabalarga fayllarni biriktirishingiz mumkin emas
Siz fayllarni ko‘chirishingiz mumkin emas