˂
˃
Tarqatmalar statistikasi
Ko‘chirmoqdaman: [ 5 ]
Ko‘chirib bo‘ldim: [ 38 ]
 
     
 
 

N.U.R.I.K.B.E.K ®

Jins:
Yigit
Staj:
2 yil 5 oy
Xabarlar:
590

Qayerdan: Jizzax. Paxtakor

Taqiq:

-Muz Yurak 2 | Холодное Cердце 2 | Frozen II
--Chiqqan yili: 2019
Davlat: AQSH
Janr: Multfilm, Musiqiy, Hayoliy, Komediya, Sarguzasht,
Davomiyligi: 01:43:13
Tarjima: Professional MilliyTV O'zbek Tili
Tarjima: Professional Org Ing Tili.--Rejissyor: Kris Bak, Jennifer Lee.--Rollarni ovozlashtirganlar: Idina Menzel, Kristen Bell, Jonatan Grof, Josh Gad, Sterling K. Braun, Evan Reychel Vud, Alfred Molina, Marta Plimpton, Jeyson Ritter, Reychel Metyus--Tavsif: Anna, Elza, Kristof, uning sodiq kiyiklari Sven va hech qachon tushkunlikka tushmagan kardan odam Olaf Arendelle qirolligidan chiqib, shimolga shimolga borishlari kerak, bu esa ularni qadimiy afsonalarning kelib chiqishiga olib keladi va o'z ona yurtlarining o'tmishi sirlarini ochishga yordam beradi.--Videoning sifati: Blu-Ray 1080p HEVC
Video format: MKV--Video: H265 1920x808 23.976fps 1 782 kb/s
Audio: MP3 48000Hz stereo 128kbps Uzb
Audio 2: AAC 48000Hz 6ch stereo Eng--

Media Info

General
Format : Matroska
Format version : Version 4 / Version 2
File size : 1.54 GiB
Duration : 1 h 43 min
Overall bit rate : 2 130 kb/s
Movie name : PSArips.com | Frozen.2.2019.1080p.BrRip.6CH.x265.HEVC-PSA
Encoded date : UTC 2020-02-14 11:57:13
Writing application : mkvmerge v15.0.0 ('Duel with the Devil') 64-bit
Writing library : libebml v1.3.5 + libmatroska v1.4.5
Video
ID : 1
Format : HEVC
Format/Info : High Efficiency Video Coding
Format profile : Main@L4@Main
Codec ID : V_MPEGH/ISO/HEVC
Duration : 1 h 43 min
Bit rate : 1 782 kb/s
Width : 1 920 pixels
Height : 808 pixels
Display aspect ratio : 2.40:1
Frame rate mode : Constant
Frame rate : 23.976 (24000/1001) FPS
Color space : YUV
Chroma subsampling : 4:2:0
Bit depth : 8 bits
Bits/(Pixel*Frame) : 0.048
Stream size : 1.28 GiB (84%)
Default : Yes
Forced : No
Color range : Limited
Matrix coefficients : BT.709
Audio #1
ID : 2
Format : MPEG Audio
Format version : Version 1
Format profile : Layer 3
Mode : Joint stereo
Codec ID : A_MPEG/L3
Codec ID/Hint : MP3
Duration : 1 h 43 min
Bit rate mode : Constant
Bit rate : 128 kb/s
Channel(s) : 2 channels
Sampling rate : 48.0 kHz
Frame rate : 41.667 FPS (1152 SPF)
Compression mode : Lossy
Stream size : 94.5 MiB (6%)
Title : Uzb @N_U_R_I_K_B_E_K
Writing library : LAME3.99.5
Language : Uzbek
Default : Yes
Forced : Yes
Audio #2
ID : 3
Format : AAC
Format/Info : Advanced Audio Codec
Format profile : HE-AAC / LC
Codec ID : A_AAC
Duration : 1 h 43 min
Bit rate : 218 kb/s
Channel(s) : 6 channels
Channel(s)_Original : 18 channels
Channel positions : Front: 14, Side: C, Back: C, LFE= 2
Sampling rate : 48.0 kHz / 24.0 kHz
Frame rate : 23.438 FPS (1024 SPF)
Compression mode : Lossy
Delay relative to video : 23 ms
Stream size : 161 MiB (10%)
Title : Eng
Language : English
Default : No
Forced : No
LAVHALAR
Profil ShX

Topik O`zbek tilidagi tarjima multfilmlar forumidan HEVC Multfilmlar ga ko‘chirildi
N.U.R.I.K.B.E.K

Mavzu yaratish 14-Fev-2020 17:39 (1 oy 7 kun o‘tgach)

N.U.R.I.K.B.E.K ®

Jins:
Yigit
Staj:
2 yil 5 oy
Xabarlar:
590

Qayerdan: Jizzax. Paxtakor

Taqiq:

Torrent fayl yangilandi va video Blu-Ray 1080p HEVC ga o'zgartirildi.

Mavzu yaratish 14-Fev-2020 18:11 (1 oy 7 kun o‘tgach)

Iqitibos

Profil ShX
Xabarlarni ko‘rsatish:    

Hozirgi vaqt: 07-Apr 03:05

Vaqtlar farqi: UTC + 5



Siz mavzu yaratishingiz mumkin emas
Siz xabarlarga javob qaytarishingiz mumkin emas
Siz o‘z xabarlaringizni tahrirlashingiz mumkin emas
Siz o‘z xabarlaringizni o‘chirishingiz mumkin emas
Siz so‘rovlarda ovoz berishingiz mumkin emas
Siz xabalarga fayllarni biriktirishingiz mumkin emas
Siz fayllarni ko‘chirishingiz mumkin emas