˂
˃
Tarqatmalar statistikasi
Ko‘chirmoqdaman: [ 3 ]
Ko‘chirib bo‘ldim: [ 14 ]
 
     
 
 

N.U.R.I.K.B.E.K ®

Jins:
Yigit
Staj:
2 yil 3 oy
Xabarlar:
590

Qayerdan: Jizzax. Paxtakor

Taqiq:

-Malefisenta 2: Zulmat Malikasi
Малефисента: Владычица Tьмы
Maleficent: Mistress of Evil

--Chiqqan yili: 2019
Davlat: AQSH, Buyuk Britaniya
Janr: Xayoliy, Sarguzasht, Oilaviy
Davomiyligi: 01:58:51
Tarjima: Professional SevimliTv O'zbek Tili
Tarjima: Professional iTunes Rus Tili
Tarjima: Professional Org Eng Tili--Rejissyor: Xoakim Ronning.--Rollarda: Anjelina Joli, Al-Fanning, Xarris Dikkinson, Mishel Pfayffer, Sam Riley, Civetel Ejiofor, Ed Scrain, Robert Lindsay, Devid Gyashi, Jenn Murray--Tavsif: Voqealar Malefisentaning Malika Aurora uchun yomon sehr-jodu qo'yganidan bir necha yil o'tgach sodir bo'ladi. Filmda qorong'u peri va kelajak Malika o'rtasidagi murakkab munosabatlar, sehrli o'rmonni va u erda yashaydigan sehrli jonzotlarni himoya qilishda yangi ittifoqchilar va dushmanlar haqida hikoya qilinadi.--Videoning sifati: BDRip 720p HEVC
Video format: MKV--Video: HVC1 1280x536 23.976fps 1 192 kb/s
Audio: MP3 48000Hz stereo 128kbps Uzb
Audio 2: MP3 48000Hz stereo 128kbps Rus
Audio 3: AAC 48000Hz 6ch Eng--

Media Info

General
Format : Matroska
Format version : Version 4 / Version 2
File size : 1.39 GiB
Duration : 1 h 58 min
Overall bit rate : 1 679 kb/s
Movie name : PSArips.com | Maleficent.Mistress.of.Evil.2019.720p.10bit.BluRay.6CH.x265.HEVC-PSA
Encoded date : UTC 2020-01-05 12:12:40
Writing application : mkvmerge v15.0.0 ('Duel with the Devil') 64-bit
Writing library : libebml v1.3.5 + libmatroska v1.4.5
Video
ID : 1
Format : HEVC
Format/Info : High Efficiency Video Coding
Format profile : Main 10@L3.1@Main
Codec ID : V_MPEGH/ISO/HEVC
Duration : 1 h 58 min
Bit rate : 1 192 kb/s
Width : 1 280 pixels
Height : 536 pixels
Display aspect ratio : 2.40:1
Frame rate mode : Constant
Frame rate : 23.976 (24000/1001) FPS
Color space : YUV
Chroma subsampling : 4:2:0
Bit depth : 10 bits
Bits/(Pixel*Frame) : 0.072
Stream size : 1 014 MiB (71%)
Default : Yes
Forced : No
Audio #1
ID : 2
Format : MPEG Audio
Format version : Version 1
Format profile : Layer 3
Mode : Joint stereo
Codec ID : A_MPEG/L3
Codec ID/Hint : MP3
Duration : 1 h 58 min
Bit rate mode : Constant
Bit rate : 128 kb/s
Channel(s) : 2 channels
Sampling rate : 48.0 kHz
Frame rate : 41.667 FPS (1152 SPF)
Compression mode : Lossy
Stream size : 109 MiB (8%)
Title : Uzb
Writing library : LAME3.99.5
Language : Uzbek
Default : Yes
Forced : Yes
Audio #2
ID : 3
Format : MPEG Audio
Format version : Version 1
Format profile : Layer 3
Mode : Joint stereo
Mode extension : MS Stereo
Codec ID : A_MPEG/L3
Codec ID/Hint : MP3
Duration : 1 h 58 min
Bit rate mode : Constant
Bit rate : 128 kb/s
Channel(s) : 2 channels
Sampling rate : 48.0 kHz
Frame rate : 41.667 FPS (1152 SPF)
Compression mode : Lossy
Stream size : 109 MiB (8%)
Title : Rus
Writing library : LAME3.99.5
Language : Russian
Default : No
Forced : Yes
Audio #3
ID : 4
Format : AAC
Format/Info : Advanced Audio Codec
Format profile : HE-AAC / LC
Codec ID : A_AAC
Duration : 1 h 58 min
Bit rate : 228 kb/s
Channel(s) : 6 channels
Channel positions : Front: L C R, Side: L R, LFE
Sampling rate : 48.0 kHz / 24.0 kHz
Frame rate : 23.438 FPS (1024 SPF)
Compression mode : Lossy
Delay relative to video : 31 ms
Stream size : 194 MiB (14%)
Title : Eng
Language : English
Default : No
Forced : No
LAVHALAR
.torrent yuklash

Yuqori tezlikda va bepul ko‘chirish!

Qanday yuklab olinadi? · Torrent nima o‘zi? · Reyting va cheklovlar

Profil ShX
Xabarlarni ko‘rsatish:    

Hozirgi vaqt: 25-Fev 21:02

Vaqtlar farqi: UTC + 5



Siz mavzu yaratishingiz mumkin emas
Siz xabarlarga javob qaytarishingiz mumkin emas
Siz o‘z xabarlaringizni tahrirlashingiz mumkin emas
Siz o‘z xabarlaringizni o‘chirishingiz mumkin emas
Siz so‘rovlarda ovoz berishingiz mumkin emas
Siz xabalarga fayllarni biriktirishingiz mumkin emas
Siz fayllarni ko‘chirishingiz mumkin emas