˂
˃
Tarqatmalar statistikasi
Ko‘chirmoqdaman: [ 1 ]
Ko‘chirib bo‘ldim: [ 43 ]
 
     
 
 

N.U.R.I.K.B.E.K ®

Jins:
Yigit
Staj:
2 yil 3 oy
Xabarlar:
590

Qayerdan: Jizzax. Paxtakor

Taqiq:

- --Bo'ri Qizi | Дочь волка | Daughter of the Wolf
--Chiqqan yili: 2019
Davlat: Kanada
Janr: Jangari, Triller
Davomiyligi: 01:28:12
Tarjima: Professional MY5 O'zbek Tili.--Rejissyor: Devid Xekl--Rollarda: Jina Karano, Richard Dreyfuss, Brendan Fer, Sidel Noel, Anton Gillis-Adelman, Morgan, Yoshua Murdoch Brock--Tavsif: Claire yaqin Sharq safaridan uyga qaytadi va uning 13 yoshli o'g'li otasi deb nomlanuvchi ma'lum bir odam boshchiligidagi mahalliy gangsterlar tomonidan o'g'irlab ketilganini bilib oladi.--Videoning sifati: WEBRip
Video format: MKV--Video: MPEG4 Video (H264) 1280x522 (71:29) 23.976fps 1 050 kb/s
Audio: MP3 48000Hz stereo 128kbps O'zbek Tili--

Media Info

General
Format : Matroska
Format version : Version 4 / Version 2
File size : 744 MiB
Duration : 1 h 28 min
Overall bit rate : 1 180 kb/s
Encoded date : UTC 2019-12-25 08:17:03
Writing application : mkvmerge v15.0.0 ('Duel with the Devil') 64-bit
Writing library : libebml v1.3.5 + libmatroska v1.4.5
Video
ID : 1
Format : AVC
Format/Info : Advanced Video Codec
Format profile : High@L4.1
Format settings, CABAC : Yes
Format settings, RefFrames : 4 frames
Codec ID : V_MPEG4/ISO/AVC
Duration : 1 h 28 min
Bit rate : 1 050 kb/s
Width : 1 280 pixels
Height : 522 pixels
Display aspect ratio : 2.40:1
Original display aspect ratio : 2.40:1
Frame rate mode : Constant
Frame rate : 23.976 (24000/1001) FPS
Color space : YUV
Chroma subsampling : 4:2:0
Bit depth : 8 bits
Scan type : Progressive
Bits/(Pixel*Frame) : 0.066
Stream size : 662 MiB (89%)
Writing library : x264 core 157
Default : Yes
Forced : No
Audio
ID : 2
Format : MPEG Audio
Format version : Version 1
Format profile : Layer 3
Mode : Joint stereo
Mode extension : MS Stereo
Codec ID : A_MPEG/L3
Codec ID/Hint : MP3
Duration : 1 h 28 min
Bit rate mode : Constant
Bit rate : 128 kb/s
Channel(s) : 2 channels
Sampling rate : 48.0 kHz
Frame rate : 41.667 FPS (1152 SPF)
Compression mode : Lossy
Stream size : 80.8 MiB (11%)
Title : O'zbek Tili
Writing library : LAME3.99.5
Language : Uzbek
Default : Yes
Forced : No
LAVHALAR
.torrent yuklash

Yuqori tezlikda va bepul ko‘chirish!

Qanday yuklab olinadi? · Torrent nima o‘zi? · Reyting va cheklovlar

Profil ShX
Xabarlarni ko‘rsatish:    

Hozirgi vaqt: 25-Fev 19:27

Vaqtlar farqi: UTC + 5



Siz mavzu yaratishingiz mumkin emas
Siz xabarlarga javob qaytarishingiz mumkin emas
Siz o‘z xabarlaringizni tahrirlashingiz mumkin emas
Siz o‘z xabarlaringizni o‘chirishingiz mumkin emas
Siz so‘rovlarda ovoz berishingiz mumkin emas
Siz xabalarga fayllarni biriktirishingiz mumkin emas
Siz fayllarni ko‘chirishingiz mumkin emas