˂
˃
Tarqatmalar statistikasi
Ko‘chirib bo‘ldim: [ 12 ]
 
     
 
 

MRLG ®

Jins:
Yigit
Staj:
2 yil 6 oy
Xabarlar:
622
Taqiq:

Xarobadan chiqqan millioner / Миллионер из трущоб / Slumdog Millionaire- Chiqqan yili: 2008
Davlat: Buyuk Britaniya, AQSH
Janr: drama, melodrama
Davomiyligi: 02:00:26
Tarjima #1: Ko'povozli kadr ortidan - [O'zbek tilida] Yoshlar
Tarjima #2: To'liq dublyaj - [Rus tilida]
Subtitrlar: rus, ingliz-Rejissyor: Denni Boyl / Danny Boyle, Lavlin Tandan / Loveleen Tandan--Rollarda: Dev Patel, Frida Pinto, Аnil Kapur, Saurabx Shukla, Maxesh Mandjrekar, Irfan Kxan, Madxur Mittal, Radj Zutshi, Jeneva Talvar, Аjaruddin Moxammed Izmail, Аyush Maxesh Kxedekar, Jira Banjara--Tavsif: 18 yoshli Jamol Malik, Mumbaydagi qashshoq yetim bola, "Kim millioner bo'lishni xohlaydi?" Televizion o'yinida g'alaba qozonish va 20 million rupiy yutib olishga bir qadam qoldi. O'yinni to'xtatib, u firibgarlikda gumon qilinib politsiya tomonidan hibsga olinadi. Ko‘chada ulg‘aygan yigit bu qadar nimani bilishi mumkin?
Politsiya tomonidan so'roq qilinayotganda Jamol hayotining qayg'uli hikoyasini aytadi: akasi bilan bo'lgan tajribali sarguzashtlari, mahalliy to'dalar bilan bo'lgan qiyinchiliklar va uning fojiali muhabbati haqida. Uning shaxsiy hikoyasining har bir bobida mo''jizaviy tarzda viktorinaning savollariga javoblar berilgan.
O'yin qayta boshlanganida, politsiya inspektori va oltmish million tomoshabin faqat bitta savolga javob topishni istaydilar: nega bu yigit boylik uchun aniq istagi bo'lmagan holda televizion dasturda ishtirok etishga qaror qildi?-- -Sifat: BDRip-AVC
Format: MKV
Video: AVC, 1040x432 (2.40:1), 2576 kbps, 23,976 fps, 0,239 bpp
Audio №1: Uzbek / MP3 / 2.0 / 48 kHz / 128 kbps /
Audio №2: rus / AC3 / 5.1 / 48 kHz / 448 kbps /
Audio №3: eng / AC3 / 5.1 / 48 kHz / 448 kbps /-

Media Info

General
Unique ID                                : 183078685379233861124910417828719739705 (0x89BBAC179955B2709287D1702395C339)
Complete name                            : D:\Кино\Дубляж фильмлар\HD Films Collection\Xarobadan.chiqqan.millioner.2008.BDRip-AVC-[MRLG].mkv
Format                                   : Matroska
Format version                           : Version 2
File size                                : 3.02 GiB
Duration                                 : 2 h 0 min
Overall bit rate                         : 3 588 kb/s
Movie name                               : HELLYWOOD - rip by potroks
Encoded date                             : UTC 2019-09-08 15:33:45
Writing application                      : mkvmerge v7.8.0 ('River Man') 32bit built on Apr  3 2015 12:11:22
Writing library                          : libebml v1.3.1 + libmatroska v1.4.2
Video
ID                                       : 1
Format                                   : AVC
Format/Info                              : Advanced Video Codec
Format profile                           : High@L4.1
Format settings, CABAC                   : Yes
Format settings, ReFrames                : 11 frames
Codec ID                                 : V_MPEG4/ISO/AVC
Duration                                 : 2 h 0 min
Bit rate                                 : 2 576 kb/s
Width                                    : 1 040 pixels
Height                                   : 432 pixels
Display aspect ratio                     : 2.40:1
Frame rate mode                          : Constant
Frame rate                               : 23.976 FPS
Color space                              : YUV
Chroma subsampling                       : 4:2:0
Bit depth                                : 8 bits
Scan type                                : Progressive
Bits/(Pixel*Frame)                       : 0.239
Stream size                              : 2.10 GiB (69%)
Title                                    : Slumdog Millionaire
Writing library                          : x264 core 130 r2273 b3065e6
Encoding settings                        : cabac=1 / ref=11 / deblock=1:-3:-2 / analyse=0x3:0x133 / me=umh / subme=11 / psy=1 / psy_rd=1.05:0.00 / mixed_ref=1 / me_range=32 / chroma_me=1 / trellis=2 / 8x8dct=1 / cqm=0 / deadzone=21,11 / fast_pskip=0 / chroma_qp_offset=-2 / threads=9 / lookahead_threads=6 / sliced_threads=0 / nr=0 / decimate=0 / interlaced=0 / bluray_compat=0 / constrained_intra=0 / bframes=12 / b_pyramid=2 / b_adapt=2 / b_bias=0 / direct=3 / weightb=1 / open_gop=0 / weightp=2 / keyint=250 / keyint_min=23 / scenecut=40 / intra_refresh=0 / rc_lookahead=60 / rc=2pass / mbtree=0 / bitrate=2576 / ratetol=1.0 / qcomp=0.70 / qpmin=0 / qpmax=69 / qpstep=4 / cplxblur=20.0 / qblur=0.5 / vbv_maxrate=20000 / vbv_bufsize=25000 / nal_hrd=none / ip_ratio=1.35 / pb_ratio=1.25 / aq=1:0.80
Language                                 : English
Default                                  : Yes
Forced                                   : No
Audio #1
ID                                       : 2
Format                                   : MPEG Audio
Format version                           : Version 1
Format profile                           : Layer 3
Mode                                     : Joint stereo
Mode extension                           : MS Stereo
Codec ID                                 : A_MPEG/L3
Codec ID/Hint                            : MP3
Duration                                 : 2 h 0 min
Bit rate mode                            : Constant
Bit rate                                 : 128 kb/s
Channel(s)                               : 2 channels
Sampling rate                            : 48.0 kHz
Compression mode                         : Lossy
Stream size                              : 110 MiB (4%)
Title                                    : Yoshlar | MRLG
Writing library                          : LAME3.100Є
Language                                 : Uzbek
Default                                  : Yes
Forced                                   : Yes
Audio #2
ID                                       : 3
Format                                   : AC-3
Format/Info                              : Audio Coding 3
Mode extension                           : CM (complete main)
Format settings, Endianness              : Big
Codec ID                                 : A_AC3
Duration                                 : 2 h 0 min
Bit rate mode                            : Constant
Bit rate                                 : 448 kb/s
Channel(s)                               : 6 channels
Channel positions                        : Front: L C R, Side: L R, LFE
Sampling rate                            : 48.0 kHz
Frame rate                               : 31.250 FPS (1536 spf)
Compression mode                         : Lossy
Stream size                              : 386 MiB (12%)
Title                                    : Dub | DD 5.1 @ 448 kbps - BD RUS
Language                                 : Russian
Default                                  : No
Forced                                   : No
Audio #3
ID                                       : 4
Format                                   : AC-3
Format/Info                              : Audio Coding 3
Mode extension                           : CM (complete main)
Format settings, Endianness              : Big
Codec ID                                 : A_AC3
Duration                                 : 2 h 0 min
Bit rate mode                            : Constant
Bit rate                                 : 448 kb/s
Channel(s)                               : 6 channels
Channel positions                        : Front: L C R, Side: L R, LFE
Sampling rate                            : 48.0 kHz
Frame rate                               : 31.250 FPS (1536 spf)
Compression mode                         : Lossy
Stream size                              : 386 MiB (12%)
Title                                    : Original | DD 5.1 @ 448 kbps
Language                                 : English
Default                                  : No
Forced                                   : No
Text #1
ID                                       : 5
Format                                   : UTF-8
Codec ID                                 : S_TEXT/UTF8
Codec ID/Info                            : UTF-8 Plain Text
Language                                 : Russian
Default                                  : No
Forced                                   : No
Text #2
ID                                       : 6
Format                                   : UTF-8
Codec ID                                 : S_TEXT/UTF8
Codec ID/Info                            : UTF-8 Plain Text
Language                                 : English
Default                                  : No
Forced                                   : No
Menu
00:00:00.000                             : en:One Question Away
00:03:21.618                             : en:Tell Me How You Cheated
00:06:01.111                             : en:Children of the Slums
00:09:19.809                             : en:Superstar!
00:14:29.410                             : en:India's National Emblem
00:16:22.190                             : en:Bow and Arrow
00:20:27.393                             : en:Orphaned and Homeless
00:22:46.240                             : en:A Bloody Saint
00:25:49.631                             : en:Little Beggars
00:29:42.739                             : en:Run!
00:37:57.233                             : en:Riding the Rails
00:40:54.535                             : en:Is This Heaven?
00:47:47.990                             : en:Ben Franklin
00:49:52.156                             : en:The Unlucky One
00:53:57.901                             : en:On His Knees
00:59:08.003                             : en:My Enemy's Enemy
01:01:57.881                             : en:The Man with the Gun
01:06:28.067                             : en:Friends and Family
01:12:19.752                             : en:The Old Slum
01:15:33.821                             : en:Why Are You Here?
01:23:21.163                             : en:You Could Lose Everything
01:24:22.891                             : en:So Close
01:27:05.137                             : en:The Answer Is B.
01:34:51.686                             : en:Please Forgive Me
01:39:26.294                             : en:We Love You, Jamal!
01:42:01.699                             : en:The Third Musketeer
01:50:08.185                             : en:It Is Written
01:52:55.727                             : en:End Titles

Miniatyura

- © Template by MRLG
.torrent yuklash

Yuqori tezlikda va bepul ko‘chirish!

Qanday yuklab olinadi? · Torrent nima o‘zi? · Reyting va cheklovlar

Profil ShX
Xabarlarni ko‘rsatish:    

Hozirgi vaqt: 25-Fev 21:42

Vaqtlar farqi: UTC + 5



Siz mavzu yaratishingiz mumkin emas
Siz xabarlarga javob qaytarishingiz mumkin emas
Siz o‘z xabarlaringizni tahrirlashingiz mumkin emas
Siz o‘z xabarlaringizni o‘chirishingiz mumkin emas
Siz so‘rovlarda ovoz berishingiz mumkin emas
Siz xabalarga fayllarni biriktirishingiz mumkin emas
Siz fayllarni ko‘chirishingiz mumkin emas