˂
˃
Tarqatmalar statistikasi
Ko‘chirmoqdaman: [ 1 ]
Ko‘chirib bo‘ldim: [ 8 ]
 
     
 
 

Striker ®

Jins:
Yigit
Staj:
2 yil 7 oy
Xabarlar:
59
Taqiq:

SNAYPER(O'zbek film)
Janr: Jangari, Drama
Chiqqan yili: 2019
Davomiyligi: 01:42:57
Rejissyor: Ozod Shams
Rollarda: Ulug'bek Qodirov, Bonu Nur, Matyoqub Matchonov, Behzod Muhammadkarimov, Mansur Mirzo, Saida Rametova, Dogukan Erdem Kutlu
Senariy muallifi: Saida Vahobova, Feruza Fattoxova
Postanovkachi rejissyor: Ozod Shams
Postanovkachi operator: Anvar Odilov
Postanovkachi rassom: Muhammadali Rahimov
Bastakor: Farrux Sobirov
Prodyuser: Ruslan Mirzayev
Videoning sifati: WEBRip 2K
Video formati: MK4
Video: MPEG4 Video (H264) 2048x852 25fps 3963kbps
Audio: AAC 44100Hz stereo 128kbps

MediaInfo

General
Complete name : D:\DOWNLOADS\Snayper (o'zbek film).mp4
Format : MPEG-4
Format profile : Base Media
Codec ID : isom (isom/iso2/avc1/mp41)
File size : 2.95 GiB
Duration : 1 h 42 min
Overall bit rate : 4 099 kb/s
Writing application : Lavf58.20.100
Video
ID : 1
Format : AVC
Format/Info : Advanced Video Codec
Format profile : High@L4
Format settings : CABAC / 3 Ref Frames
Format settings, CABAC : Yes
Format settings, Reference fra : 3 frames
Codec ID : avc1
Codec ID/Info : Advanced Video Coding
Duration : 1 h 42 min
Bit rate : 3 963 kb/s
Width : 2 048 pixels
Height : 852 pixels
Display aspect ratio : 2.40:1
Frame rate mode : Constant
Frame rate : 25.000 FPS
Color space : YUV
Chroma subsampling : 4:2:0
Bit depth : 8 bits
Scan type : Progressive
Bits/(Pixel*Frame) : 0.091
Stream size : 2.85 GiB (97%)
Codec configuration box : avcC
Audio
ID : 2
Format : AAC LC
Format/Info : Advanced Audio Codec Low Complexity
Codec ID : mp4a-40-2
Duration : 1 h 42 min
Bit rate mode : Constant
Bit rate : 129 kb/s
Channel(s) : 2 channels
Channel layout : L R
Sampling rate : 44.1 kHz
Frame rate : 43.066 FPS (1024 SPF)
Compression mode : Lossy
Stream size : 94.7 MiB (3%)
Default : Yes
Alternate group : 1

Miniatyura

Lavhalar

Profil ShX
Xabarlarni ko‘rsatish:    

Hozirgi vaqt: 07-Apr 02:05

Vaqtlar farqi: UTC + 5



Siz mavzu yaratishingiz mumkin emas
Siz xabarlarga javob qaytarishingiz mumkin emas
Siz o‘z xabarlaringizni tahrirlashingiz mumkin emas
Siz o‘z xabarlaringizni o‘chirishingiz mumkin emas
Siz so‘rovlarda ovoz berishingiz mumkin emas
Siz xabalarga fayllarni biriktirishingiz mumkin emas
Siz fayllarni ko‘chirishingiz mumkin emas