˂
˃
Tarqatmalar statistikasi
Ko‘chirmoqdaman: [ 3 ]
Ko‘chirib bo‘ldim: [ 39 ]
 
     
 
 

N.U.R.I.K.B.E.K ®

Jins:
Yigit
Staj:
2 yil 3 oy
Xabarlar:
590

Qayerdan: Jizzax. Paxtakor

Taqiq:

-Rembo: So'nggi Jang | Рэмбо: Последняя кровь | Rambo: Last Blood
--Chiqqan yili: 2019
Davlat: AQSH
Janr: Jangari, Triller, Sarguzasht, Tarixiy.
Davomiyligi: 01:30:26
Tarjima: Professional MY5 O'zbek Tilida.--Rejissyor: Adrian Gyunberg.--Rollarda: Sylvester Stallone, Pas Vega, Monreal, Luis Mandilor, Oskar Haenada, Shila Shoh, Serxio Peris-Menchet, Jessica Madsen, Joaquin Koçio, Adriana Barrasa Yashaydi--Tavsif: U butun hayotini sirlarini saqlab qoldi, lekin o'tmishning ko'ziga qarash vaqti keldi. Oxirgi marta to'plash va shafqatsiz qotillik mashinasi bo'lish. Rambo yana o'lik yo'lga chiqadi-u oxirigacha borishi kerak bo'lgan qasos yo'li.--Videoning sifati: HDRip 720p HEVC
Video format: MKV--Video: HEVC 1280x536 29.97fps 848 kb/s
Audio: MP3 48000Hz stereo 128kbps O'zbek Tili
Subtitr: Kor Tilida--

Media Info

General
Format : Matroska
Format version : Version 4 / Version 2
File size : 633 MiB
Duration : 1 h 30 min
Overall bit rate : 978 kb/s
Movie name : PSArips.com | Rambo.Last.Blood.2019.720p.HC.HDRip.2CH.x265.HEVC-PSA
Encoded date : UTC 2019-11-29 18:21:35
Writing application : mkvmerge v15.0.0 ('Duel with the Devil') 64-bit
Writing library : libebml v1.3.5 + libmatroska v1.4.5
Video
ID : 1
Format : HEVC
Format/Info : High Efficiency Video Coding
Format profile : Main@L3.1@Main
Codec ID : V_MPEGH/ISO/HEVC
Duration : 1 h 30 min
Bit rate : 848 kb/s
Width : 1 280 pixels
Height : 536 pixels
Display aspect ratio : 2.40:1
Frame rate mode : Constant
Frame rate : 29.970 (30000/1001) FPS
Color space : YUV
Chroma subsampling : 4:2:0
Bit depth : 8 bits
Bits/(Pixel*Frame) : 0.041
Stream size : 549 MiB (87%)
Default : Yes
Forced : No
Color range : Limited
Color primaries : BT.709
Transfer characteristics : BT.709
Matrix coefficients : BT.709
Audio
ID : 2
Format : MPEG Audio
Format version : Version 1
Format profile : Layer 3
Mode : Joint stereo
Mode extension : MS Stereo
Codec ID : A_MPEG/L3
Codec ID/Hint : MP3
Duration : 1 h 30 min
Bit rate mode : Constant
Bit rate : 128 kb/s
Channel(s) : 2 channels
Sampling rate : 48.0 kHz
Frame rate : 41.667 FPS (1152 SPF)
Compression mode : Lossy
Stream size : 82.8 MiB (13%)
Title : O'zbek Tili
Language : Uzbek
Default : Yes
Forced : No
LAVHALAR
.torrent yuklash

Yuqori tezlikda va bepul ko‘chirish!

Qanday yuklab olinadi? · Torrent nima o‘zi? · Reyting va cheklovlar

Profil ShX
Xabarlarni ko‘rsatish:    

Hozirgi vaqt: 25-Fev 20:19

Vaqtlar farqi: UTC + 5



Siz mavzu yaratishingiz mumkin emas
Siz xabarlarga javob qaytarishingiz mumkin emas
Siz o‘z xabarlaringizni tahrirlashingiz mumkin emas
Siz o‘z xabarlaringizni o‘chirishingiz mumkin emas
Siz so‘rovlarda ovoz berishingiz mumkin emas
Siz xabalarga fayllarni biriktirishingiz mumkin emas
Siz fayllarni ko‘chirishingiz mumkin emas