˂
˃
Tarqatmalar statistikasi
Ko‘chirmoqdaman: [ 4 ]
Ko‘chirib bo‘ldim: [ 36 ]
 
     
 
 

N.U.R.I.K.B.E.K ®

Jins:
Yigit
Staj:
2 yil 2 oy
Xabarlar:
571

Qayerdan: Jizzax. Paxtakor

Taqiq:

-Gemini | Гемини | Gemini Man
--Chiqqan yili: 2019
Davlat: Xitoy, AQSH.
Janr: Fantastik, Jangari, Triller, Drama.
Davomiyligi: 01:57:00
Tarjima #1: Professional Sevimli O'zbek Tilida--Rejissyor: Eng Li.--Rollarda: Uill Smit, Meri Elizabeth Winstead, Clive Owen, Benedict Vong, Duglas Xo'ja, Theodora Woolley, Ralf Brown, Linda Emond, Andrea Nush, Ilya Voloh.--Tavsif: Genri brogan, birinchi sinf qotil, har bir qadamni oldindan biladigan sirli operativ shaxsning maqsadiga aylanadi...--Videoning sifati: WEB-DLRip
Video format: MKV-Video: HVC1 1280x688 23.976fps 1 000 kb/s
Audio: MP3 48000Hz stereo 128kbps O'zbek Tili--

Media Info

General
Format : Matroska
Format version : Version 4 / Version 2
File size : 945 MiB
Duration : 1 h 56 min
Overall bit rate : 1 130 kb/s
Movie name : PSArips.com | Gemini.Man.2019.720p.WEBRip.2CH.x265.HEVC-PSA
Encoded date : UTC 2019-11-29 13:23:48
Writing application : mkvmerge v15.0.0 ('Duel with the Devil') 64-bit
Writing library : libebml v1.3.5 + libmatroska v1.4.5
Video
ID : 1
Format : HEVC
Format/Info : High Efficiency Video Coding
Format profile : Main@L3.1@Main
Codec ID : V_MPEGH/ISO/HEVC
Duration : 1 h 56 min
Bit rate : 1 000 kb/s
Width : 1 280 pixels
Height : 688 pixels
Display aspect ratio : 1.85:1
Frame rate mode : Constant
Frame rate : 23.976 (24000/1001) FPS
Color space : YUV
Chroma subsampling : 4:2:0
Bit depth : 8 bits
Bits/(Pixel*Frame) : 0.047
Stream size : 837 MiB (89%)
Default : Yes
Forced : No
Color range : Limited
Color primaries : BT.709
Transfer characteristics : BT.709
Matrix coefficients : BT.709
Audio
ID : 2
Format : MPEG Audio
Format version : Version 1
Format profile : Layer 3
Mode : Joint stereo
Mode extension : MS Stereo
Codec ID : A_MPEG/L3
Codec ID/Hint : MP3
Duration : 1 h 56 min
Bit rate mode : Constant
Bit rate : 128 kb/s
Channel(s) : 2 channels
Sampling rate : 48.0 kHz
Frame rate : 41.667 FPS (1152 SPF)
Compression mode : Lossy
Stream size : 107 MiB (11%)
Title : O'zbek Tili
Language : Uzbek
Default : Yes
Forced : No
LAVHALAR
.torrent yuklash

Yuqori tezlikda va bepul ko‘chirish!

Qanday yuklab olinadi? · Torrent nima o‘zi? · Reyting va cheklovlar

Profil ShX
Xabarlarni ko‘rsatish:    

Hozirgi vaqt: 28-Yan 03:32

Vaqtlar farqi: UTC + 5



Siz mavzu yaratishingiz mumkin emas
Siz xabarlarga javob qaytarishingiz mumkin emas
Siz o‘z xabarlaringizni tahrirlashingiz mumkin emas
Siz o‘z xabarlaringizni o‘chirishingiz mumkin emas
Siz so‘rovlarda ovoz berishingiz mumkin emas
Siz xabalarga fayllarni biriktirishingiz mumkin emas
Siz fayllarni ko‘chirishingiz mumkin emas