˂
˃
Tarqatmalar statistikasi
Ko‘chiraman: [ 1 ]
Ko‘chirmoqdaman: [ 10 ]
Ko‘chirib bo‘ldim: [ 14 ]
 
     
 
 

gnom6862 ®

Jins:
Ko‘rsatilmagan
Staj:
2 yil 3 oy
Xabarlar:
7
Taqiq:

Matritsa: Uchlik | Матрица: Трилогия | The Matrix: Trilogy
Chiqqan yili: 1999-2003
Davlat: AQSH
Janr: fantastika, jangari
Davomiyligi: 02:16:17
Tarjima: Professional (dublyaj qilingan) O'zbek tilida
Rejissyor: Lilli Vachovski, Lana Vachovski
Videoning sifati: BluRay 1080p HEVC
Video format: MKV

Matritsa / Матрица / The Matrix

Matritsa | Матрица | The Matrix
Chiqqan yili: 1999
Davlat: AQSH
Janr: fantastika, jangari
Davomiyligi: 02:16:17
Tarjima: Professional (dublyaj qilingan)
Rejissyor: Lilli Vachovski, Lana Vachovski
Rollarda: Kianu Rivz, Lourens Fishbyorn, Kerri-Enn Moss, Xyugo Uiving, Gloriya Foster, Djo Pantoliano, Markus Chong, Pol Goddard, Robert Teylor, Djulien Araxanga, Mett Doran, Belinda MakKlori, Entoni Rey Parker, Stiv Dodd
Tavsif: Tomas Andersonning hayoti ikki qismga bo'linadi: kun davomida u eng oddiy ofis ishchisidir, u o'z rahbarlaridan tanqidlarni qabul qiladi va kechasi u Neo ismli xakerga aylanadi va tarmoqqa u kira olmaydigan joy yo'q. Ammo bir marta hamma narsa o'zgaradi - qahramon beixtiyor dahshatli haqiqatni bilib oladi: uni o'rab turgan hamma narsa faqat xayoldir, Matritsa va odamlar shunchaki insoniyatni qul qilgan sun'iy aql uchun quvvat manbai. Faqatgina Neo bu to'satdan begona va dahshatli dunyoda kuchlar muvozanatini o'zgartira oladi.
Videoning sifati: BluRay 1080p HEVC
Video format: MKV
Video: HEVC x265 10 bit, 1920x796, 23.976 fps, 1292 kb/s
Audio: AAC 44100 Hz stereo 192 kbps O'zbek tili
Audio 2: AC-3 48000 Hz 6 ch 448 kbps Ingliz tili
Subtitrlar: Ingiliz, Fransuz, Italiyan, Nemis

Media Info

General
Unique ID : 261512406312716646707967897396903224264 (0xC4BD75192041379BB4B5C0AF865D23C8)
Complete name : \\Neurolog-pc\Kino\Качества\Translate\The Matrix Trilogy\The.Matrix.1999.1080p.BluRay.x265.10bit.mkv
Format : Matroska
Format version : Version 4
File size : 1.86 GiB
Duration : 2 h 16 min
Overall bit rate : 1 953 kb/s
Encoded date : UTC 2019-11-16 11:26:33
Writing application : mkvmerge v40.0.0 ('Old Town Road + Pony') 64-bit
Writing library : libebml v1.3.9 + libmatroska v1.5.2
Video
ID : 1
Format : HEVC
Format/Info : High Efficiency Video Coding
Format profile : Main 10@L4@Main
Codec ID : V_MPEGH/ISO/HEVC
Duration : 2 h 16 min
Bit rate : 1 292 kb/s
Width : 1 920 pixels
Height : 796 pixels
Display aspect ratio : 2.40:1
Frame rate mode : Constant
Frame rate : 23.976 (24000/1001) FPS
Color space : YUV
Chroma subsampling : 4:2:0
Bit depth : 10 bits
Bits/(Pixel*Frame) : 0.035
Stream size : 1.23 GiB (66%)
Writing library : x265 2.3+33-0b7d54dbb71a:[Windows][MSVC 1910][64 bit] 10bit
Encoding settings : cpuid=1173503 / frame-threads=3 / numa-pools=8 / wpp / no-pmode / no-pme / no-psnr / no-ssim / log-level=2 / input-csp=1 / input-res=1920x796 / interlace=0 / total-frames=196074 / level-idc=0 / high-tier=1 / uhd-bd=0 / ref=4 / no-allow-non-conformance / no-repeat-headers / annexb / no-aud / no-hrd / info / hash=0 / no-temporal-layers / open-gop / min-keyint=23 / keyint=250 / bframes=4 / b-adapt=2 / b-pyramid / bframe-bias=0 / rc-lookahead=25 / lookahead-slices=4 / scenecut=40 / no-intra-refresh / ctu=64 / min-cu-size=8 / rect / no-amp / max-tu-size=32 / tu-inter-depth=1 / tu-intra-depth=1 / limit-tu=0 / rdoq-level=2 / dynamic-rd=0.00 / ssim-rd / signhide / no-tskip / nr-intra=0 / nr-inter=0 / no-constrained-intra / strong-intra-smoothing / max-merge=3 / limit-refs=3 / limit-modes / me=3 / subme=3 / merange=57 / temporal-mvp / weightp / no-weightb / no-analyze-src-pics / deblock=0:0 / sao / no-sao-non-deblock / rd=4 / no-early-skip / rskip / no-fast-intra / no-tskip-fast / no-cu-lossless / no-b-intra / rdpenalty=0 / psy-rd=0.00 / psy-rdoq=1.00 / no-rd-refine / analysis-mode=0 / no-lossless / cbqpoffs=0 / crqpoffs=0 / rc=crf / crf=22.0 / qcomp=0.60 / qpstep=4 / stats-write=0 / stats-read=0 / ipratio=1.40 / pbratio=1.30 / aq-mode=1 / aq-strength=1.00 / cutree / zone-count=0 / no-strict-cbr / qg-size=32 / no-rc-grain / qpmax=69 / qpmin=0 / sar=0 / overscan=0 / videoformat=5 / range=0 / colorprim=2 / transfer=2 / colormatrix=2 / chromaloc=0 / display-window=0 / max-cll=0,0 / min-luma=0 / max-luma=1023 / log2-max-poc-lsb=8 / vui-timing-info / vui-hrd-info / slices=1 / opt-qp-pps / opt-ref-list-length-pps / no-multi-pass-opt-rps / scenecut-bias=0.05 / no-opt-cu-delta-qp / no-aq-motion / no-hdr / no-hdr-opt / refine-level=5 / no-limit-sao
Language : English
Default : Yes
Forced : No
Audio #1
ID : 2
Format : AAC LC
Format/Info : Advanced Audio Codec Low Complexity
Codec ID : A_AAC-2
Duration : 2 h 16 min
Bit rate : 192 kb/s
Channel(s) : 2 channels
Channel layout : L R
Sampling rate : 44.1 kHz
Frame rate : 43.066 FPS (1024 SPF)
Compression mode : Lossy
Stream size : 190 MiB (10%)
Title : by UzBEST
Language : Uzbek
Default : Yes
Forced : No
Audio #2
ID : 3
Format : AC-3
Format/Info : Audio Coding 3
Commercial name : Dolby Digital
Codec ID : A_AC3
Duration : 2 h 16 min
Bit rate mode : Constant
Bit rate : 448 kb/s
Channel(s) : 6 channels
Channel layout : L R C LFE Ls Rs
Sampling rate : 48.0 kHz
Frame rate : 31.250 FPS (1536 SPF)
Bit depth : 16 bits
Compression mode : Lossy
Stream size : 437 MiB (23%)
Language : English
Service kind : Complete Main
Default : No
Forced : No
Text #1
ID : 4
Format : VobSub
Muxing mode : zlib
Codec ID : S_VOBSUB
Codec ID/Info : Picture based subtitle format used on DVDs
Duration : 2 h 15 min
Bit rate : 6 881 b/s
Count of elements : 1372
Stream size : 6.67 MiB (0%)
Language : English
Default : Yes
Forced : No
Text #2
ID : 5
Format : VobSub
Muxing mode : zlib
Codec ID : S_VOBSUB
Codec ID/Info : Picture based subtitle format used on DVDs
Duration : 2 h 15 min
Bit rate : 5 823 b/s
Count of elements : 1272
Stream size : 5.64 MiB (0%)
Language : French
Default : No
Forced : No
Text #3
ID : 6
Format : VobSub
Muxing mode : zlib
Codec ID : S_VOBSUB
Codec ID/Info : Picture based subtitle format used on DVDs
Duration : 2 h 15 min
Bit rate : 6 235 b/s
Count of elements : 1302
Stream size : 6.04 MiB (0%)
Language : Italian
Default : No
Forced : No
Text #4
ID : 7
Format : VobSub
Muxing mode : zlib
Codec ID : S_VOBSUB
Codec ID/Info : Picture based subtitle format used on DVDs
Duration : 2 h 15 min
Bit rate : 5 757 b/s
Count of elements : 857
Stream size : 5.58 MiB (0%)
Language : Dutch
Default : No
Forced : No
Menu
00:00:00.000 : en:Trinity in a Jam
00:03:25.788 : en:Impossible Pursuit
00:06:35.645 : en:Follow Instructions
00:09:42.665 : en:The Question
00:11:58.300 : en:"They're Coming for You"
00:16:47.423 : en:Unable to Speak
00:21:33.542 : en:Getting the Bug Out
00:25:08.590 : en:Morpheus' Proposal
00:28:51.146 : en:Down the Rabbit Hole
00:32:25.193 : en:Slimy Rebirth
00:35:21.869 : en:Nebuchadnezzar's Crew
00:38:40.901 : en:The Real World
00:44:22.576 : en:The Search Is Over
00:46:33.540 : en:Training Begins
00:48:57.851 : en:Morpheus/Neo Matchup
00:53:31.291 : en:First Jump
00:56:32.138 : en:The Gatekeepers
00:59:01.287 : en:Running Silent and Deep
01:01:08.581 : en:Dealing for Bliss
01:05:16.495 : en:Off to See the Oracle
01:07:46.812 : en:There Is No Spoon
01:12:33.432 : en:Choices...and a Cookie
01:17:49.581 : en:Glitch in the Matrix
01:21:03.108 : en:One Left Behide
01:25:05.350 : en:Heroes Unplugged
01:29:45.129 : en:Cypher's Burnout
01:31:27.565 : en:Matters of Belief
01:37:25.256 : en:Virus to Be Cured
01:41:04.975 : en:Lobby Shooting Spree
01:44:20.337 : en:Dodge This
01:47:00.497 : en:Gotcha
01:50:18.528 : en:Rooftop Rescue
01:52:56.686 : en:Subway Showdown
01:56:36.906 : en:"My Name Is Neo"
01:58:49.372 : en:Sentinels Attack
02:02:27.423 : en:"He Is the One"
02:05:41.784 : en:Final Connections
02:08:46.802 : en:End Credits ("Wake Up Rock Is Dead")

Lavhalar

Matritsa: Qayta yuklash / Матрица: Перезагрузка / The Matrix Reloaded

Matritsa: Qayta yuklash | Матрица: Перезагрузка | The Matrix Reloaded
Chiqqan yili: 2003
Davlat: AQSH
Janr: fantastika, jangari
Davomiyligi: 02:18:15
Tarjima: Professional (dublyaj qilingan)
Rejissyor: Lilli Vachovski, Lana Vachovski
Rollarda: Kianu Rivz, Kerri-Enn Moss, Lorens Fishbyorn, Xyugo Uiving, Monika Belluchchi, Lamber Vilson, Entoni Von, Garri Dj. Lenniks, Rendoll Dak Kim, Gloriya Foster
Tavsif: Neo, Trinity va Morpheus ozodlik kurashchilari Mashinalar armiyasiga qarshi isyon ko'tarishda davom etmoqdalar. Qatag'on va ekspluatatsiya tizimini yo'q qilish uchun ular nafaqat mukammal qurollar arsenaliga, balki o'zlarining yuqori mahoratiga murojaat qilishga majbur bo'lmoqdalar.
Insoniyatni butunlay yo'q bo'lib ketishidan qutqarish uchun missiyada ishtirok etish ularga Matritsaning qurilishi va Neo-ning insoniyat taqdiridagi markaziy rolini chuqurroq anglashga olib keladi.
Videoning sifati: BluRay 1080p HEVC
Video format: MKV
Video: HEVC x265 10 bit, 1920x796, 23.976 fps, 1621 kb/s
Audio: AAC 44100 Hz stereo 192 kbps O'zbek tili
Audio 2: AC-3 48000 Hz 6 ch 448 kbps Ingliz tili
Subtitrlar: Ingiliz, Fransuz

Media Info

General
Unique ID : 140011917564173311329133691108093134869 (0x6955508080A0E4E7F04500A880690815)
Complete name : \\Neurolog-pc\Kino\Качества\Translate\The Matrix Trilogy\The.Matrix.Reloaded.2003.1080p.BluRay.x265.10bit.mkv
Format : Matroska
Format version : Version 4
File size : 2.19 GiB
Duration : 2 h 18 min
Overall bit rate : 2 271 kb/s
Encoded date : UTC 2019-11-16 11:28:11
Writing application : mkvmerge v40.0.0 ('Old Town Road + Pony') 64-bit
Writing library : libebml v1.3.9 + libmatroska v1.5.2
Video
ID : 1
Format : HEVC
Format/Info : High Efficiency Video Coding
Codec ID : V_MPEGH/ISO/HEVC
Duration : 2 h 18 min
Bit rate : 1 621 kb/s
Width : 1 920 pixels
Height : 796 pixels
Display aspect ratio : 2.40:1
Frame rate mode : Constant
Frame rate : 23.976 (24000/1001) FPS
Bits/(Pixel*Frame) : 0.044
Stream size : 1.57 GiB (71%)
Language : English
Default : Yes
Forced : No
Audio #1
ID : 2
Format : AAC LC
Format/Info : Advanced Audio Codec Low Complexity
Codec ID : A_AAC-2
Duration : 2 h 18 min
Bit rate : 192 kb/s
Channel(s) : 2 channels
Channel layout : L R
Sampling rate : 44.1 kHz
Frame rate : 43.066 FPS (1024 SPF)
Compression mode : Lossy
Stream size : 193 MiB (9%)
Title : by UzBEST
Language : Uzbek
Default : Yes
Forced : No
Audio #2
ID : 3
Format : AC-3
Format/Info : Audio Coding 3
Commercial name : Dolby Digital
Codec ID : A_AC3
Duration : 2 h 18 min
Bit rate mode : Constant
Bit rate : 448 kb/s
Channel(s) : 6 channels
Channel layout : L R C LFE Ls Rs
Sampling rate : 48.0 kHz
Frame rate : 31.250 FPS (1536 SPF)
Bit depth : 16 bits
Compression mode : Lossy
Stream size : 443 MiB (20%)
Language : English
Service kind : Complete Main
Default : No
Forced : No
Text #1
ID : 4
Format : UTF-8
Codec ID : S_TEXT/UTF8
Codec ID/Info : UTF-8 Plain Text
Duration : 2 h 15 min
Bit rate : 45 b/s
Count of elements : 1189
Stream size : 45.7 KiB (0%)
Language : English
Default : Yes
Forced : No
Text #2
ID : 5
Format : VobSub
Muxing mode : zlib
Codec ID : S_VOBSUB
Codec ID/Info : Picture based subtitle format used on DVDs
Duration : 2 h 16 min
Bit rate : 6 554 b/s
Count of elements : 1306
Stream size : 6.41 MiB (0%)
Language : French
Default : No
Forced : No

Lavhalar

Matritsa: Inqilob / Матрица: Революция / The Matrix Revolutions

Matritsa: Inqilob | Матрица: Революция | The Matrix Revolutions
Chiqqan yili: 2003
Davlat: AQSH
Janr: fantastika, jangari
Davomiyligi: 02:09:15
Tarjima: Professional (dublyaj qilingan)
Rejissyor: Lilli Vachovski, Lana Vachovski
Rollarda: Kianu Rivz, Kerri-Enn Moss, Lorens Fishbyorn, Xyugo Uiving, Monika Belluchchi, Bryus Spens, Djada Pinkett Smit, Xerold Perrino, Garri Dj. Lenniks, Xelmut Bakaytis
Tavsif: Mashinalar armiyasi Sionni yo'q qilishga harakat qilayotganda, uning aholisi o'zlarining mudofaalarini butun kuchlari bilan o'tkazmoqdalar. Ammo Neo o'zining barcha kuchlarini yig'ib, urushni to'xtatgunga qadar, ular shafqatsiz mashinalar bilan to'lib toshgan shaharning to'liq bostirib kirishiga yo'l qo'ymaydimi?
Videoning sifati: BluRay 1080p HEVC
Video format: MKV
Video: HEVC x265 10 bit, 1920x796, 23.976 fps, 2011 kb/s
Audio: AAC 44100 Hz stereo 192 kbps O'zbek tili
Audio 2: AC-3 48000 Hz 6 ch 448 kbps Ingliz tili
Subtitrlar: Ingiliz, Fransuz, Italiyan

Media Info

General
Unique ID : 180549053700110566376540525459174101828 (0x87D47B9F04C6F235A476EA3970C09344)
Complete name : \\Neurolog-pc\Kino\Качества\Translate\The Matrix Trilogy\The.Matrix.Revolutions.2003.1080p.BluRay.x265.10bit.mkv
Format : Matroska
Format version : Version 4
File size : 2.41 GiB
Duration : 2 h 9 min
Overall bit rate : 2 664 kb/s
Encoded date : UTC 2019-11-18 12:25:46
Writing application : mkvmerge v40.0.0 ('Old Town Road + Pony') 64-bit
Writing library : libebml v1.3.9 + libmatroska v1.5.2
Video
ID : 1
Format : HEVC
Format/Info : High Efficiency Video Coding
Codec ID : V_MPEGH/ISO/HEVC
Duration : 2 h 9 min
Bit rate : 2 011 kb/s
Width : 1 920 pixels
Height : 796 pixels
Display aspect ratio : 2.40:1
Frame rate mode : Constant
Frame rate : 23.976 (24000/1001) FPS
Bits/(Pixel*Frame) : 0.055
Stream size : 1.82 GiB (75%)
Language : English
Default : Yes
Forced : No
Audio #1
ID : 2
Format : AAC LC
Format/Info : Advanced Audio Codec Low Complexity
Codec ID : A_AAC-2
Duration : 2 h 9 min
Bit rate : 192 kb/s
Channel(s) : 2 channels
Channel layout : L R
Sampling rate : 44.1 kHz
Frame rate : 43.066 FPS (1024 SPF)
Compression mode : Lossy
Stream size : 181 MiB (7%)
Title : by UzBEST
Language : Uzbek
Default : Yes
Forced : No
Audio #2
ID : 3
Format : AC-3
Format/Info : Audio Coding 3
Commercial name : Dolby Digital
Codec ID : A_AC3
Duration : 2 h 9 min
Bit rate mode : Constant
Bit rate : 448 kb/s
Channel(s) : 6 channels
Channel layout : L R C LFE Ls Rs
Sampling rate : 48.0 kHz
Frame rate : 31.250 FPS (1536 SPF)
Bit depth : 16 bits
Compression mode : Lossy
Stream size : 414 MiB (17%)
Language : English
Service kind : Complete Main
Default : No
Forced : No
Text #1
ID : 4
Format : UTF-8
Codec ID : S_TEXT/UTF8
Codec ID/Info : UTF-8 Plain Text
Duration : 1 h 58 min
Bit rate : 41 b/s
Count of elements : 1066
Stream size : 36.4 KiB (0%)
Language : English
Default : Yes
Forced : No
Text #2
ID : 5
Format : VobSub
Muxing mode : zlib
Codec ID : S_VOBSUB
Codec ID/Info : Picture based subtitle format used on DVDs
Duration : 2 h 7 min
Bit rate : 5 766 b/s
Count of elements : 1124
Stream size : 5.28 MiB (0%)
Language : French
Default : No
Forced : No
Text #3
ID : 6
Format : VobSub
Muxing mode : zlib
Codec ID : S_VOBSUB
Codec ID/Info : Picture based subtitle format used on DVDs
Duration : 2 h 7 min
Bit rate : 6 880 b/s
Count of elements : 1066
Stream size : 6.29 MiB (0%)
Language : Italian
Default : No
Forced : No

Lavhalar

.torrent yuklash

Yuqori tezlikda va bepul ko‘chirish!

Qanday yuklab olinadi? · Torrent nima o‘zi? · Reyting va cheklovlar

Profil ShX

ZAFAR-studio

Jins:
Yigit
Staj:
1 yil 7 oy
Xabarlar:
56

Qayerdan: Хоразм вилояти, Урганч шаҳри, "12-сонли Маъшал" маҳалласидан

Taqiq:

gnom6862, Катта рохмат....

Mavzu yaratish 19-Noy-2019 20:25 (3 soat o‘tgach)

Iqitibos

Profil ShX

gnom6862 ®

Jins:
Ko‘rsatilmagan
Staj:
2 yil 3 oy
Xabarlar:
7
Taqiq:

Ertaga ertalabdan tarqatishni boshlayman

Mavzu yaratish 19-Noy-2019 20:52 (26 daqiqa o‘tgach)

Iqitibos

Profil ShX

Gr@nd

Jins:
Yigit
Staj:
2 yil 4 oy
Xabarlar:
174

Qayerdan: Jizzax Forish

Taqiq:

gnom6862, Raxmat ishingizga omad

Mavzu yaratish 19-Noy-2019 22:32 (1 soat 40 daqiqa o‘tgach)

Iqitibos

Profil ShX

azizbek

Jins:
Yigit
Staj:
2 yil 2 oy
Xabarlar:
172

Qayerdan: Surxondaryo

Taqiq:

gnom6862, qaysi provayderdasiz. Menda uzonline unlim 10 tarifi. Yuklash qiyin bo'lyapti

Mavzu yaratish 20-Noy-2019 15:26 (16 soat o‘tgach)

Iqitibos

Profil ShX

Soft-Release

Jins:
Yigit
Staj:
1 yil 10 oy
Xabarlar:
853

Qayerdan: Kattakurgan

Taqiq:

8837gnom6862, qaysi provayderdasiz. Menda uzonline unlim 10 tarifi. Yuklash qiyin bo'lyapti
azizbek, Beeline Ekan Man Tarqatayabmanku Manda Static IP Mani IP Yimga Ulansayiz Muammosiz Tarqatib Beraman Katta Tezlikda

Mavzu yaratish 20-Noy-2019 19:02 (3 soat o‘tgach)

Iqitibos

Profil ShX
Xabarlarni ko‘rsatish:    

Hozirgi vaqt: 28-Yan 03:00

Vaqtlar farqi: UTC + 5



Siz mavzu yaratishingiz mumkin emas
Siz xabarlarga javob qaytarishingiz mumkin emas
Siz o‘z xabarlaringizni tahrirlashingiz mumkin emas
Siz o‘z xabarlaringizni o‘chirishingiz mumkin emas
Siz so‘rovlarda ovoz berishingiz mumkin emas
Siz xabalarga fayllarni biriktirishingiz mumkin emas
Siz fayllarni ko‘chirishingiz mumkin emas