˂
˃
Tarqatmalar statistikasi
Ko‘chirmoqdaman: [ 5 ]
Ko‘chirib bo‘ldim: [ 36 ]
 
     
 
 

N.U.R.I.K.B.E.K ®

Jins:
Yigit
Staj:
2 yil 2 oy
Xabarlar:
571

Qayerdan: Jizzax. Paxtakor

Taqiq:

-Himoyachining Qulashi | Падение ангела | Angel Has Fallen
--Chiqqan yili: 2019
Davlat: AQSH
Janr: Jangari
Davomiyligi: 02:01:03
Tarjima #1: Professional MY5 O'zbek Tilida
Tarjima #2: Professional iTunes Rus Tilida--Rejissyor: Rik Roman Vo.--Rollarda: Jerard Batler, Morgan Freeman, Piper Perabo, Jada Pinkett Smit, Nik Nolty, Lance Reddick, Danny Xyuston, Tim Bleyk Nelson, Maykl Landis, Chris Browning.--Tavsif: AQSh prezidenti suiqasd uyushtirdi, asosiy ayblanuvchi davlat boshlig'ining ishonchli farishtasi va maxfiy xizmat agenti Mayk Banning. FBIdan yashirinib, uni almashtirganlarni topish va mamlakatni va uning rahbarini halokatli tahdiddan qutqarish kerak.--Videoning sifati: BDRip 1080p HEVC
Video format: MKV--Video: HVC1 1920x808 23.976fps 2 000 kb/s
Audio: MP3 48000Hz stereo 128kbps O'zbek Tili
Audio 2: MP3 48000Hz stereo 128kbps Rus Tili--

Media Info

General
Format : Matroska
Format version : Version 4 / Version 2
File size : 1.91 GiB
Duration : 2 h 1 min
Overall bit rate : 2 259 kb/s
Movie name : PSArips.com | Angel.Has.Fallen.2019.1080p.BrRip.6CH.x265.HEVC-PSA
Encoded date : UTC 2019-11-16 14:44:01
Writing application : mkvmerge v15.0.0 ('Duel with the Devil') 64-bit
Writing library : libebml v1.3.5 + libmatroska v1.4.5
Video
ID : 1
Format : HEVC
Format/Info : High Efficiency Video Coding
Format profile : Main@L4@Main
Codec ID : V_MPEGH/ISO/HEVC
Duration : 2 h 1 min
Bit rate : 2 000 kb/s
Width : 1 920 pixels
Height : 808 pixels
Display aspect ratio : 2.40:1
Frame rate mode : Constant
Frame rate : 23.976 (24000/1001) FPS
Color space : YUV
Chroma subsampling : 4:2:0
Bit depth : 8 bits
Bits/(Pixel*Frame) : 0.054
Stream size : 1.69 GiB (89%)
Default : Yes
Forced : No
Audio #1
ID : 2
Format : MPEG Audio
Format version : Version 1
Format profile : Layer 3
Mode : Joint stereo
Mode extension : MS Stereo
Codec ID : A_MPEG/L3
Codec ID/Hint : MP3
Duration : 2 h 1 min
Bit rate mode : Constant
Bit rate : 128 kb/s
Channel(s) : 2 channels
Sampling rate : 48.0 kHz
Frame rate : 41.667 FPS (1152 SPF)
Compression mode : Lossy
Stream size : 111 MiB (6%)
Title : O'zbek Tili
Writing library : LAME3.99.5
Language : Uzbek
Default : Yes
Forced : No
Audio #2
ID : 3
Format : MPEG Audio
Format version : Version 1
Format profile : Layer 3
Mode : Joint stereo
Mode extension : MS Stereo
Codec ID : A_MPEG/L3
Codec ID/Hint : MP3
Duration : 2 h 1 min
Bit rate mode : Constant
Bit rate : 128 kb/s
Channel(s) : 2 channels
Sampling rate : 48.0 kHz
Frame rate : 41.667 FPS (1152 SPF)
Compression mode : Lossy
Stream size : 111 MiB (6%)
Title : Rus Tili
Writing library : LAME3.99.5
Language : Russian
Default : No
Forced : No
LAVHALAR
.torrent yuklash

Yuqori tezlikda va bepul ko‘chirish!

Qanday yuklab olinadi? · Torrent nima o‘zi? · Reyting va cheklovlar

Profil ShX

BoboMUROD

Jins:
Ko‘rsatilmagan
Staj:
2 yil 3 oy
Xabarlar:
20
Taqiq:

Reliz PULLIK

Mavzu yaratish 18-Noy-2019 22:04 (1 kun 10 soat o‘tgach)

Iqitibos

Profil ShX

N.U.R.I.K.B.E.K ®

Jins:
Yigit
Staj:
2 yil 2 oy
Xabarlar:
571

Qayerdan: Jizzax. Paxtakor

Taqiq:

BoboMUROD, yo'q

Mavzu yaratish 18-Noy-2019 22:31 (27 daqiqa o‘tgach)

Iqitibos

Profil ShX

BoboMUROD

Jins:
Ko‘rsatilmagan
Staj:
2 yil 3 oy
Xabarlar:
20
Taqiq:

8831Himoyachining Qulashi
Uzr bilmabman. RAHMAT SIZga, baraka toping

Mavzu yaratish 19-Noy-2019 06:59 (8 soat o‘tgach)

Iqitibos

Profil ShX
Xabarlarni ko‘rsatish:    

Hozirgi vaqt: 28-Yan 02:08

Vaqtlar farqi: UTC + 5



Siz mavzu yaratishingiz mumkin emas
Siz xabarlarga javob qaytarishingiz mumkin emas
Siz o‘z xabarlaringizni tahrirlashingiz mumkin emas
Siz o‘z xabarlaringizni o‘chirishingiz mumkin emas
Siz so‘rovlarda ovoz berishingiz mumkin emas
Siz xabalarga fayllarni biriktirishingiz mumkin emas
Siz fayllarni ko‘chirishingiz mumkin emas