˂
˃
Tarqatmalar statistikasi
Ko‘chirib bo‘ldim: [ 19 ]
 
     
 
 

N.U.R.I.K.B.E.K ®

Jins:
Yigit
Staj:
2 yil 4 oy
Xabarlar:
590

Qayerdan: Jizzax. Paxtakor

Taqiq:

-Baxt Ortidan Quvib | В погоне за счастьем | The Pursuit of Happyness
--Chiqqan yili: 2006
Davlat: AQSH
Janr: Drama, Biografiya
Davomiyligi: 01:57:27
Tarjima #1: Professional Yoshlar O'zbek Tilida
Tarjima #2: Professional iTunes Rus Tilida--Rejissyor: Gabriele Muchchino.--Rollarda: Uill Smit, Jayden Smit, Tandy Nyuton, Brian Hau, Jeyms Karen, Dan Castellaneta, Kurt Fuller, Takayo Fisher, Kevin West, Jorj Chung--Tavsif: Chris Gardner Yolg'iz Ota. Besh yoshli o'g'lini tarbiyalashda Chris bolani baxtli qilish uchun kurash olib boradi. Sotuvchi sifatida ishlaydigan, u kvartirani to'lay olmaydi va ular ko'chiriladi. Ko'chada bir marta, lekin taslim bo'lishni xohlamasdan, otasi brokerlik kompaniyasida mutaxassis tomonidan tashkil etiladi. Faqat u erda uning daromadlari normal emas. Ammo Chris o'g'lini hech qanday tarzda o'stirishga va'da berdi va hech qanday qiyinchilik uni to'xtata olmaydi.- -Videoning sifati: BDRip
Video format: MKV--Video: Xvid 720x304 23.976fps 1 750 kb/s
Audio: MP3 48000Hz stereo 128kbps O'zbek Tili
Audio 2: Dolby AC3 48000Hz 6ch 448kbps Rus Tili--

Media Info

General
Format : Matroska
Format version : Version 4 / Version 2
File size : 1.91 GiB
Duration : 1 h 57 min
Overall bit rate : 2 328 kb/s
Encoded date : UTC 2019-11-07 10:55:28
Writing application : mkvmerge v15.0.0 ('Duel with the Devil') 64-bit
Writing library : libebml v1.3.5 + libmatroska v1.4.5
Video
ID : 1
Format : MPEG-4 Visual
Format profile : Advanced Simple@L5
Format settings, BVOP : 1
Format settings, QPel : No
Format settings, GMC : No warppoints
Format settings, Matrix : Custom
Codec ID : V_MS/VFW/FOURCC / XVID
Codec ID/Hint : XviD
Duration : 1 h 57 min
Bit rate : 1 750 kb/s
Width : 720 pixels
Height : 304 pixels
Display aspect ratio : 2.35:1
Frame rate mode : Constant
Frame rate : 23.976 (23976/1000) FPS
Color space : YUV
Chroma subsampling : 4:2:0
Bit depth : 8 bits
Scan type : Progressive
Compression mode : Lossy
Bits/(Pixel*Frame) : 0.333
Stream size : 1.44 GiB (75%)
Writing library : XviD 73
Default : Yes
Forced : No
Audio #1
ID : 2
Format : MPEG Audio
Format version : Version 1
Format profile : Layer 3
Mode : Joint stereo
Mode extension : MS Stereo
Codec ID : A_MPEG/L3
Codec ID/Hint : MP3
Duration : 1 h 57 min
Bit rate mode : Constant
Bit rate : 128 kb/s
Channel(s) : 2 channels
Sampling rate : 48.0 kHz
Frame rate : 41.667 FPS (1152 SPF)
Compression mode : Lossy
Stream size : 108 MiB (5%)
Title : O'zbek Tili
Writing library : LAME3.99.5
Language : Uzbek
Default : Yes
Forced : No
Audio #2
ID : 3
Format : AC-3
Format/Info : Audio Coding 3
Format settings, Endianness : Big
Codec ID : A_AC3
Duration : 1 h 57 min
Bit rate mode : Constant
Bit rate : 448 kb/s
Channel(s) : 6 channels
Channel positions : Front: L C R, Side: L R, LFE
Sampling rate : 48.0 kHz
Frame rate : 31.250 FPS (1536 SPF)
Bit depth : 16 bits
Compression mode : Lossy
Stream size : 376 MiB (19%)
Title : Rus Tili
Language : Russian
Service kind : Complete Main
Default : No
Forced : No
LAVHALAR
Profil ShX
Xabarlarni ko‘rsatish:    

Hozirgi vaqt: 29-Mar 08:05

Vaqtlar farqi: UTC + 5



Siz mavzu yaratishingiz mumkin emas
Siz xabarlarga javob qaytarishingiz mumkin emas
Siz o‘z xabarlaringizni tahrirlashingiz mumkin emas
Siz o‘z xabarlaringizni o‘chirishingiz mumkin emas
Siz so‘rovlarda ovoz berishingiz mumkin emas
Siz xabalarga fayllarni biriktirishingiz mumkin emas
Siz fayllarni ko‘chirishingiz mumkin emas