˂
˃
Tarqatmalar statistikasi
Ko‘chirmoqdaman: [ 2 ]
Ko‘chirib bo‘ldim: [ 10 ]
 
     
 
 

N.U.R.I.K.B.E.K ®

Jins:
Yigit
Staj:
2 yil 1 oy
Xabarlar:
565

Qayerdan: Jizzax. Paxtakor

Taqiq:

--Tezlik Zavqi | Жажда скорости | Need for Speed
--Chiqqan yili: 2014
Davlat: AQSH, Hindiston, Buyuk Britany, Fransiya, Filipin.
Janr: Jangari, Triller
Davomiyligi: 02:10:43
Tarjima #1: Professional Kinoteatr O'zbek Tilida
Tarjima #2: Professional iTunes Rus Tilida--Rejissyor: Skott Bo.--Rollarda: Aaron P0l, Dominik Cooper, Imojen Puts, Dakota Jonson, Maykl Keaton, Ramon Rodriguez, Nik Chinland, Scott Mescadi, Rami Malek, Harrison Gilbertsson.--Tavsif: Toby Marshall, faqat otdushina er osti poygalarida ishtirok etadigan ajoyib avtomobil mexanikasi. Oilaviy ustaxonani saqlab qolish uchun Tobi boy va mag'rur sobiq NASCAR Racer Dino Brewsterning hamkorlariga kirishga majbur. Tobi ishi nihoyat yuqoriga ko'tarila boshlaganda, Dino sherikni almashtiradi va Tobi u qilmagan jinoyatda ayblanmoqda. Ikki yil o'tgach, Toby qamoqdan chiqib, qasos olish fikri bilan chiqdi. Uning maqsadiga erishish uchun u imkonsiz ishni bajarishi kerak va hatto superkarlar dunyosida ham eng oddiy chavandoz birinchi marta yakunlanishi mumkinligini isbotlashi kerak.--Videoning sifati: BDRip 720p
Video format: MKV--Video: MPEG4 Video (H264) 1280x536 23.976fps 1 726 kb/s
Audio: MP3 48000Hz stereo 128kbps O'zbek Tili
Audio 2: AAC 48000Hz 6ch Rus Tili--

Media Info

General
Format : Matroska
Format version : Version 4 / Version 2
File size : 1.87 GiB
Duration : 2 h 10 min
Overall bit rate : 2 044 kb/s
Encoded date : UTC 2019-10-28 21:52:50
Writing application : mkvmerge v15.0.0 ('Duel with the Devil') 64-bit
Writing library : libebml v1.3.5 + libmatroska v1.4.5
Video
ID : 1
Format : AVC
Format/Info : Advanced Video Codec
Format profile : High@L4.1
Format settings, CABAC : Yes
Format settings, RefFrames : 10 frames
Codec ID : V_MPEG4/ISO/AVC
Duration : 2 h 10 min
Bit rate : 1 726 kb/s
Width : 1 280 pixels
Height : 536 pixels
Display aspect ratio : 2.40:1
Frame rate mode : Constant
Frame rate : 23.976 (24000/1001) FPS
Color space : YUV
Chroma subsampling : 4:2:0
Bit depth : 8 bits
Scan type : Progressive
Bits/(Pixel*Frame) : 0.105
Stream size : 1.58 GiB (84%)
Writing library : x264 core 130 r2273 b3065e6
Default : Yes
Forced : No
Audio #1
ID : 2
Format : MPEG Audio
Format version : Version 1
Format profile : Layer 3
Mode : Joint stereo
Mode extension : MS Stereo
Codec ID : A_MPEG/L3
Codec ID/Hint : MP3
Duration : 2 h 10 min
Bit rate mode : Constant
Bit rate : 128 kb/s
Channel(s) : 2 channels
Sampling rate : 48.0 kHz
Frame rate : 41.667 FPS (1152 SPF)
Compression mode : Lossy
Stream size : 120 MiB (6%)
Title : O'zbek Tili
Writing library : LAME3.99.5
Language : Uzbek
Default : Yes
Forced : No
Audio #2
ID : 3
Format : AAC
Format/Info : Advanced Audio Codec
Format profile : LC
Codec ID : A_AAC
Duration : 2 h 10 min
Bit rate : 192 kb/s
Channel(s) : 6 channels
Channel positions : Front: L C R, Side: L R, LFE
Sampling rate : 48.0 kHz
Frame rate : 46.875 FPS (1024 SPF)
Compression mode : Lossy
Stream size : 177 MiB (9%)
Title : Rus Tili
Language : Russian
Default : No
Forced : No
LAVHALAR
.torrent yuklash

Yuqori tezlikda va bepul ko‘chirish!

Qanday yuklab olinadi? · Torrent nima o‘zi? · Reyting va cheklovlar

Profil ShX
Xabarlarni ko‘rsatish:    

Hozirgi vaqt: 09-Dek 21:13

Vaqtlar farqi: UTC + 5



Siz mavzu yaratishingiz mumkin emas
Siz xabarlarga javob qaytarishingiz mumkin emas
Siz o‘z xabarlaringizni tahrirlashingiz mumkin emas
Siz o‘z xabarlaringizni o‘chirishingiz mumkin emas
Siz so‘rovlarda ovoz berishingiz mumkin emas
Siz xabalarga fayllarni biriktirishingiz mumkin emas
Siz fayllarni ko‘chirishingiz mumkin emas