˂
˃
Tarqatmalar statistikasi
Ko‘chirmoqdaman: [ 2 ]
Ko‘chirib bo‘ldim: [ 36 ]
 
     
 
 

N.U.R.I.K.B.E.K ®

Jins:
Yigit
Staj:
2 yil 2 oy
Xabarlar:
571

Qayerdan: Jizzax. Paxtakor

Taqiq:

-Qonli Meros | Наследие: Застывшая кровь | Cold Blood Legacy
--Chiqqan yili: 2019
Davlat: Fransiya, Ukraina.
Janr: Jangari, Triller
Davomiyligi: 01:31:21
Tarjima #1: Professional Yoshlar O'zbek Tilida
Tarjima #2: Professional iTunes Rus Tilida--Rejissyor: Friderik Petijan.--Rollarda: Jan Reno, Sara Linde, Jo Anderson, Devid Gyashi, Igor Tshishkevich, Fransua Getari, Samantha Bond, Katerina Bursikova, Anna Butkevich, Robert Feldman--Tavsif: Shimoliy Amerikaning qorli o'rmonlarida Henri atrofida sodir bo'lgan voqealar-ko'l bo'yidagi tanho kulbada yashovchi yollanma qotil, yolg'izlikdan zavqlanadigan va qo'rqinchli o'tmishdan qorong'u sirlarni saqlaydigan. Uning sokin va betashvish mavjudligi u singan qor avtomobil va qonli ayol topadi paytda tugaydi. Bir begona odamni o'limdan qutqarishga qaror qilib, qarib qolgan qotil katta qiyinchiliklarga duch keladi va uni eski ko'nikmalarni eslab qoladi.--Videoning sifati: BDRip-AVC
Video format: MKV--Video: MPEG4 Video (H264) 1024x428 23.976fps 1 874 kb/s
Audio: MP3 48000Hz stereo 128kbps O'zbek Tili
Audio 2: Dolby AC3 48000Hz 6ch 384kbps Rus Tili--

Media Info

General
Format : Matroska
Format version : Version 4 / Version 2
File size : 1.52 GiB
Duration : 1 h 31 min
Overall bit rate : 2 384 kb/s
Movie name : Cold.Blood.2019 #TorpedoUK#
Encoded date : UTC 2019-10-28 07:18:36
Writing application : mkvmerge v15.0.0 ('Duel with the Devil') 64-bit
Writing library : libebml v1.3.5 + libmatroska v1.4.5
Video
ID : 1
Format : AVC
Format/Info : Advanced Video Codec
Format profile : High@L4.1
Format settings, CABAC : Yes
Format settings, RefFrames : 10 frames
Codec ID : V_MPEG4/ISO/AVC
Duration : 1 h 31 min
Bit rate : 1 874 kb/s
Width : 1 024 pixels
Height : 428 pixels
Display aspect ratio : 2.40:1
Frame rate mode : Constant
Frame rate : 23.976 (24000/1001) FPS
Color space : YUV
Chroma subsampling : 4:2:0
Bit depth : 8 bits
Scan type : Progressive
Bits/(Pixel*Frame) : 0.178
Stream size : 1.19 GiB (78%)
Writing library : x264 core 146 r2538 121396c
Language : English
Default : Yes
Forced : No
Audio #1
ID : 2
Format : MPEG Audio
Format version : Version 1
Format profile : Layer 3
Mode : Joint stereo
Codec ID : A_MPEG/L3
Codec ID/Hint : MP3
Duration : 1 h 31 min
Bit rate mode : Constant
Bit rate : 128 kb/s
Channel(s) : 2 channels
Sampling rate : 48.0 kHz
Frame rate : 41.667 FPS (1152 SPF)
Compression mode : Lossy
Stream size : 83.6 MiB (5%)
Title : O'zbek Tili
Language : Uzbek
Default : Yes
Forced : No
Audio #2
ID : 3
Format : AC-3
Format/Info : Audio Coding 3
Format settings, Endianness : Big
Codec ID : A_AC3
Duration : 1 h 31 min
Bit rate mode : Constant
Bit rate : 384 kb/s
Channel(s) : 6 channels
Channel positions : Front: L C R, Side: L R, LFE
Sampling rate : 48.0 kHz
Frame rate : 31.250 FPS (1536 SPF)
Bit depth : 16 bits
Compression mode : Lossy
Stream size : 251 MiB (16%)
Title : Rus Tili
Language : Russian
Service kind : Complete Main
Default : No
Forced : No
LAVHALAR
.torrent yuklash

Yuqori tezlikda va bepul ko‘chirish!

Qanday yuklab olinadi? · Torrent nima o‘zi? · Reyting va cheklovlar



So‘ngi marta tahrirlandi: N.U.R.I.K.B.E.K (2019-10-28 12:42), Jami tahrirlangan 1 marta
Profil ShX

N.U.R.I.K.B.E.K ®

Jins:
Yigit
Staj:
2 yil 2 oy
Xabarlar:
571

Qayerdan: Jizzax. Paxtakor

Taqiq:

Reliz Bepul Ko'chirishilar Mumkin.

Mavzu yaratish 28-Okt-2019 12:37 (1 daqiqa o‘tgach)

Iqitibos

Profil ShX
Xabarlarni ko‘rsatish:    

Hozirgi vaqt: 28-Yan 03:11

Vaqtlar farqi: UTC + 5



Siz mavzu yaratishingiz mumkin emas
Siz xabarlarga javob qaytarishingiz mumkin emas
Siz o‘z xabarlaringizni tahrirlashingiz mumkin emas
Siz o‘z xabarlaringizni o‘chirishingiz mumkin emas
Siz so‘rovlarda ovoz berishingiz mumkin emas
Siz xabalarga fayllarni biriktirishingiz mumkin emas
Siz fayllarni ko‘chirishingiz mumkin emas