˂
˃
Tarqatmalar statistikasi
Yoʻq
 
     
 
 

N.U.R.I.K.B.E.K ®

Jins:
Yigit
Staj:
2 yil 2 oy
Xabarlar:
571

Qayerdan: Jizzax. Paxtakor

Taqiq:

--Garovdagi Qiz 2 | Заложница 2 | Taken 2--Chiqqan yili: 2012
Davlat: Fransiya
Janr: Jangari, Jinoyat, Triller
Davomiyligi: 01:38:19
Tarjima: Professional SevimliTv O'zbek Tilida.
Tarjima 2: Professional Rus Tili iTunes--Rejissyor: Olive Megaton.--Rollarda: Liam Nison, Maggie Inoyat, Famke Yanssen, Leland Orser, Yuhanno Inoyat, D. B. Sweeney, Luqo Gramm, Reid Sherbedjia, Kevork Malikian, Alain Figlage, Frank Alvarez, Barliqbay Tunnelli, Ali Yildirim, Qo'y Erguna, Kelgan O'zbekiston Madaniyati, Hakan Karahan, Saruhan Sari, Nasi Adiguzel.--Tavsif: Brian Mills o'z harakatlarining oqibatlarini bartaraf etishga majbur bo'ladi. Qizini qutqarib, u to'da boshlig'ini o'ldirdi, u ajablanib bo'ldi! - Murod ismli otasi bor. Murad qasos olishni istaydi va buyruq bergan shaxs sifatida tasvirlanadi, lekin u hech qachon hech kimga bo'ysunmaydi. Murad Millsni xotini bilan garovga oladi va keyin kim Mills ota-onasini qutqarishi kerak.--Videoning sifati: BDRip-AVC
Video format: MKV-Video: Xvid 720x304 23.976fps 1 723 kb/s
Audio: MP3 48000Hz stereo 128kbps O'zbek Tili
Audio 2: Dolby AC3 48000Hz 6ch 384kbps Rus Tili--

Media Info

General
Format : Matroska
Format version : Version 4 / Version 2
File size : 1.54 GiB
Duration : 1 h 38 min
Overall bit rate : 2 237 kb/s
Encoded date : UTC 2019-10-11 16:23:11
Writing application : mkvmerge v15.0.0 ('Duel with the Devil') 64-bit
Writing library : libebml v1.3.5 + libmatroska v1.4.5
Video
ID : 1
Format : MPEG-4 Visual
Format profile : Advanced Simple@L5
Format settings, BVOP : 1
Format settings, QPel : No
Format settings, GMC : No warppoints
Format settings, Matrix : Custom
Codec ID : V_MS/VFW/FOURCC / XVID
Codec ID/Hint : XviD
Duration : 1 h 38 min
Bit rate : 1 723 kb/s
Width : 720 pixels
Height : 304 pixels
Display aspect ratio : 2.35:1
Frame rate mode : Constant
Frame rate : 23.976 (24000/1001) FPS
Color space : YUV
Chroma subsampling : 4:2:0
Bit depth : 8 bits
Scan type : Progressive
Compression mode : Lossy
Bits/(Pixel*Frame) : 0.328
Stream size : 1.18 GiB (77%)
Writing library : XviD 65
Default : Yes
Forced : No
Audio #1
ID : 2
Format : MPEG Audio
Format version : Version 1
Format profile : Layer 3
Mode : Joint stereo
Mode extension : MS Stereo
Codec ID : A_MPEG/L3
Codec ID/Hint : MP3
Duration : 1 h 38 min
Bit rate mode : Constant
Bit rate : 128 kb/s
Channel(s) : 2 channels
Sampling rate : 48.0 kHz
Frame rate : 41.667 FPS (1152 SPF)
Compression mode : Lossy
Stream size : 90.0 MiB (6%)
Title : O'zbek Tili
Language : Uzbek
Default : Yes
Forced : No
Audio #2
ID : 3
Format : AC-3
Format/Info : Audio Coding 3
Format settings, Endianness : Big
Codec ID : A_AC3
Duration : 1 h 38 min
Bit rate mode : Constant
Bit rate : 384 kb/s
Channel(s) : 6 channels
Channel positions : Front: L C R, Side: L R, LFE
Sampling rate : 48.0 kHz
Frame rate : 31.250 FPS (1536 SPF)
Bit depth : 16 bits
Compression mode : Lossy
Stream size : 270 MiB (17%)
Title : Rus Tili
Language : Russian
Service kind : Complete Main
Default : No
Forced : No
LAVHALAR
.torrent yuklash

Yuqori tezlikda va bepul ko‘chirish!

Qanday yuklab olinadi? · Torrent nima o‘zi? · Reyting va cheklovlar

Profil ShX
Xabarlarni ko‘rsatish:    

Hozirgi vaqt: 28-Yan 02:40

Vaqtlar farqi: UTC + 5



Siz mavzu yaratishingiz mumkin emas
Siz xabarlarga javob qaytarishingiz mumkin emas
Siz o‘z xabarlaringizni tahrirlashingiz mumkin emas
Siz o‘z xabarlaringizni o‘chirishingiz mumkin emas
Siz so‘rovlarda ovoz berishingiz mumkin emas
Siz xabalarga fayllarni biriktirishingiz mumkin emas
Siz fayllarni ko‘chirishingiz mumkin emas