˂
˃
Tarqatmalar statistikasi
Yoʻq
 
     
 
 

N.U.R.I.K.B.E.K ®

Jins:
Yigit
Staj:
2 yil 1 oy
Xabarlar:
565

Qayerdan: Jizzax. Paxtakor

Taqiq:

--Garovdagi Qiz | Заложница | Taken--Chiqqan yili: 2008
Davlat: AQSH, Fransiya, Buyuk Britaniy
Janr: Jangari, Jinoyat, Triller
Davomiyligi: 01:31:54
Tarjima: Professional SevimliTv O'zbek Tilida.
Tarjima 2: Professional Rus Tili iTunes--Rejissyor: Per Morel.--Rollarda: Liam Nison, Maggie Greys, Leland Orser, Jon Gries, Devid Uorshofskiy, Xolli Valans, Keti Kessidi, Xander Berkli, Olivye Raburden, Jerar Uotkins.--Tavsif: yosh qiz sayyohlik dam olish paytida o'g'irlab ketildi. Uning otasi xavfli sarguzashtga kirishadi-qizini qaytarib olish va aybdorlarni shaxsan jazolash uchun najot.--Videoning sifati: BDRip-AVC
Video format: MKV-Video: Xvid 704x400 24fps 1 805 kb/s
Audio: MP3 48000Hz stereo 128kbps O'zbek Tili
Audio 2: Dolby AC3 48000Hz 6ch 9216kbps Rus Tili--

Media Info

General
Format : Matroska
Format version : Version 4 / Version 2
File size : 1.53 GiB
Duration : 1 h 31 min
Overall bit rate : 2 382 kb/s
Encoded date : UTC 2019-10-10 16:03:14
Writing application : mkvmerge v15.0.0 ('Duel with the Devil') 64-bit
Writing library : libebml v1.3.5 + libmatroska v1.4.5
Video
ID : 1
Format : MPEG-4 Visual
Format profile : Advanced Simple@L5
Format settings, BVOP : 1
Format settings, QPel : No
Format settings, GMC : No warppoints
Format settings, Matrix : Custom
Codec ID : V_MS/VFW/FOURCC / XVID
Codec ID/Hint : XviD
Duration : 1 h 31 min
Bit rate : 1 805 kb/s
Width : 704 pixels
Height : 400 pixels
Display aspect ratio : 16:9
Frame rate mode : Constant
Frame rate : 24.000 FPS
Color space : YUV
Chroma subsampling : 4:2:0
Bit depth : 8 bits
Scan type : Progressive
Compression mode : Lossy
Bits/(Pixel*Frame) : 0.267
Stream size : 1.16 GiB (76%)
Writing library : XviD 67
Default : Yes
Forced : No
Audio #1
ID : 2
Format : MPEG Audio
Format version : Version 1
Format profile : Layer 3
Mode : Joint stereo
Mode extension : MS Stereo
Codec ID : A_MPEG/L3
Codec ID/Hint : MP3
Duration : 1 h 31 min
Bit rate mode : Constant
Bit rate : 128 kb/s
Channel(s) : 2 channels
Sampling rate : 48.0 kHz
Frame rate : 41.667 FPS (1152 SPF)
Compression mode : Lossy
Stream size : 84.1 MiB (5%)
Title : O'zbek Tili
Writing library : LAME3.99.5
Language : Uzbek
Default : Yes
Forced : No
Audio #2
ID : 3
Format : AC-3
Format/Info : Audio Coding 3
Format settings, Endianness : Big
Codec ID : A_AC3
Duration : 1 h 31 min
Bit rate mode : Constant
Bit rate : 448 kb/s
Channel(s) : 6 channels
Channel positions : Front: L C R, Side: L R, LFE
Sampling rate : 48.0 kHz
Frame rate : 31.250 FPS (1536 SPF)
Bit depth : 16 bits
Compression mode : Lossy
Delay relative to video : 14 s 500 ms
Stream size : 294 MiB (19%)
Title : Rus Tili
Language : Russian
Service kind : Complete Main
Default : No
Forced : No
LAVHALAR
.torrent yuklash

Yuqori tezlikda va bepul ko‘chirish!

Qanday yuklab olinadi? · Torrent nima o‘zi? · Reyting va cheklovlar

Profil ShX
Xabarlarni ko‘rsatish:    

Hozirgi vaqt: 09-Dek 21:35

Vaqtlar farqi: UTC + 5



Siz mavzu yaratishingiz mumkin emas
Siz xabarlarga javob qaytarishingiz mumkin emas
Siz o‘z xabarlaringizni tahrirlashingiz mumkin emas
Siz o‘z xabarlaringizni o‘chirishingiz mumkin emas
Siz so‘rovlarda ovoz berishingiz mumkin emas
Siz xabalarga fayllarni biriktirishingiz mumkin emas
Siz fayllarni ko‘chirishingiz mumkin emas