˂
˃
Tarqatmalar statistikasi
Yoʻq
 
     
 
 

N.U.R.I.K.B.E.K ®

Jins:
Yigit
Staj:
2 yil 1 oy
Xabarlar:
565

Qayerdan: Jizzax. Paxtakor

Taqiq:


--Sheryurak | Храброе Сердце | Braveheart--Chiqqan yili: 1995
Davlat: AQSH
Janr: Drama, Jangari, Biografiya, Tarixiy
Davomiyligi: 02:57:34
Tarjima: Professional Yoshlar O'zbek Tilida
Tarjima 2: Professional Rus Tili iTunes--Rejissyor: Mel Gibson.--Rollarda: Мэл Гибсон /Mel Gibson/, Джеймс Робинсон /James Robinson/, Шон Лоулор /Sean Lawlor/, Сэнди Нельсон /Sandy Nelson/, Джеймс Космо /James Cosmo/, Шон МакГинли /Sean McGinley/, Алан Толл /Alan Tall/, Эндрю Вейр /Andrew Weir/, Герда Стивенсон /Gerda Stevenson/, Ральф Райч /Ralph Riach.--Tavsif: Film Shotlandiyada 1280 yilda boshlanadi. Bu afsonaviy milliy qahramon Uilyam Uollasning hikoyasidir, u o'zini Qirol Eduard Longnot ostida inglizlarga qarshi kurashishga bag'ishlagan.
U inglizlarning qo'lida vafot etgan otasini erta yo'qotdi va unga Evropada yaxshi ta'lim bergan amakisi Orgayl tomonidan olib ketildi. Uilyam o'z vataniga oilani boshlash va tinch hayot kechirishni orzu qilgan kattalarga qaytadi.
Ammo taqdir taqdiri boshqacha edi. Uning kelini inglizlar tomonidan o'ldirildi va u ozodlik uchun salibchilikni boshladi.--Videoning sifati: BDRip-AVC
Video format: MKV--Video: H.264, 1056x448, 23.976 fps, 1771 kb/s
Audio: MP3 48000Hz stereo 128kbps O'zbek Tili
Audio 2: Dolby AC3 48000Hz 6ch 384kbps Rus Tili--Film Reytingi.
-Kino Olgan Mukofotlar.
--

Media Info

General
Format : Matroska
Format version : Version 4 / Version 2
File size : 2.83 GiB
Duration : 2 h 57 min
Overall bit rate : 2 284 kb/s
Movie name : Braveheart 1995 - The Jolly Roger by Pirat.Ca [zyyx]
Encoded date : UTC 2019-10-08 15:07:34
Writing application : mkvmerge v15.0.0 ('Duel with the Devil') 64-bit
Writing library : libebml v1.3.5 + libmatroska v1.4.5
Video
ID : 1
Format : AVC
Format/Info : Advanced Video Codec
Format profile : High@L4.1
Format settings, CABAC : Yes
Format settings, RefFrames : 16 frames
Codec ID : V_MPEG4/ISO/AVC
Duration : 2 h 57 min
Bit rate : 1 771 kb/s
Width : 1 056 pixels
Height : 448 pixels
Display aspect ratio : 2.35:1
Frame rate mode : Constant
Frame rate : 23.976 (24000/1001) FPS
Color space : YUV
Chroma subsampling : 4:2:0
Bit depth : 8 bits
Scan type : Progressive
Bits/(Pixel*Frame) : 0.156
Stream size : 2.20 GiB (77%)
Title : R.G. Jolly Roger
Writing library : x264 core 116 r2044 392e762
Default : Yes
Forced : No
Audio #1
ID : 2
Format : MPEG Audio
Format version : Version 1
Format profile : Layer 3
Mode : Joint stereo
Mode extension : MS Stereo
Codec ID : A_MPEG/L3
Codec ID/Hint : MP3
Duration : 2 h 57 min
Bit rate mode : Constant
Bit rate : 128 kb/s
Channel(s) : 2 channels
Sampling rate : 48.0 kHz
Frame rate : 41.667 FPS (1152 SPF)
Compression mode : Lossy
Stream size : 163 MiB (6%)
Title : O'zbek Tili
Language : Uzbek
Default : Yes
Forced : No
Audio #2
ID : 3
Format : AC-3
Format/Info : Audio Coding 3
Format settings, Endianness : Big
Codec ID : A_AC3
Duration : 2 h 57 min
Bit rate mode : Constant
Bit rate : 384 kb/s
Channel(s) : 6 channels
Channel positions : Front: L C R, Side: L R, LFE
Sampling rate : 48.0 kHz
Frame rate : 31.250 FPS (1536 SPF)
Bit depth : 16 bits
Compression mode : Lossy
Stream size : 488 MiB (17%)
Title : Rus Tili
Language : Russian
Service kind : Complete Main
Default : No
Forced : No

LAVHALAR
.torrent yuklash

Yuqori tezlikda va bepul ko‘chirish!

Qanday yuklab olinadi? · Torrent nima o‘zi? · Reyting va cheklovlar



So‘ngi marta tahrirlandi: N.U.R.I.K.B.E.K (2019-10-10 17:45), Jami tahrirlangan 4 marta
Profil ShX

N.U.R.I.K.B.E.K ®

Jins:
Yigit
Staj:
2 yil 1 oy
Xabarlar:
565

Qayerdan: Jizzax. Paxtakor

Taqiq:

Film Pullik Yuklavolmoqchi bo'ganlar Lichkaga Yoki Telegramdan yozishi mumkin.

Mavzu yaratish 08-Okt-2019 21:15 (24 daqiqa o‘tgach)

Iqitibos

Profil ShX

Topik Sifatli Xorij filmlari (BDRip, BDRip-AVC, HD-AVC) forumidan KinoPoisk reytingi bo'yicha TOP 250 kinofilmlar ga ko‘chirildi
N.U.R.I.K.B.E.K

Mavzu yaratish 14-Noy-2019 23:10 (1 oy 6 kun o‘tgach)

Xabarlarni ko‘rsatish:    

Hozirgi vaqt: 09-Dek 20:12

Vaqtlar farqi: UTC + 5



Siz mavzu yaratishingiz mumkin emas
Siz xabarlarga javob qaytarishingiz mumkin emas
Siz o‘z xabarlaringizni tahrirlashingiz mumkin emas
Siz o‘z xabarlaringizni o‘chirishingiz mumkin emas
Siz so‘rovlarda ovoz berishingiz mumkin emas
Siz xabalarga fayllarni biriktirishingiz mumkin emas
Siz fayllarni ko‘chirishingiz mumkin emas