˂
˃
Tarqatmalar statistikasi
Ko‘chirmoqdaman: [ 2 ]
Ko‘chirib bo‘ldim: [ 7 ]
 
     
 
 

Lock ®

Jins:
Yigit
Staj:
1 yil
Xabarlar:
49

Qayerdan: Namangan

Taqiq:

Avgust Rash | Август Раш | August Rush-- Chiqqan yili: 2007
Davlat: AQSH
Janr: Melodrama, drama, musiqa
Davomiyligi: 01:53:37
Tarjima: Professional (dublyaj qilingan)
Rejissyor: Kirsten Sheridan
Rollarda: Freddie Highmore, Robin Williams, Keri Russell, Jonathan Rhys Meyers, Terrence Howard, William Sadler, Marian Seldes, Alex O'loughlin va boshqalar--Tavsif: Irlandiyalik yosh gitarachi va nufuzli oiladan bo'lgan amerikalik skripkachi oshiq bo'ldi. Nyu-Yorkdagi sehrli uchrashuvdan so'ng, vaziyatlar ulardan kuchliroq va ular ketishga majbur. Avgust Rush tug'ilgan bola Nyu-Yorkdagi boshpanalardan birida. O'n ikki yil o'tgach, Avgust Rush o'zining yoshi uchun g'ayrioddiy iste'dodli musiqachi bo'lib, o'z ota-onasini topishga intiladi. Buning yagona imkoniyati uning musiqasi, deb hisoblaydi - yosh musiqachining fikriga ko'ra, agar u ota-onasi tomonidan ijro etilsa, uni musiqa orqali tanib olishlari mumkin. Endi, sirli notanish kimsaning homiysi bo'lib, u Nyu-York ko'chalarida o'ynaydi va o'zining ajoyib musiqiy sovg'asi yordamida hech qachon ko'rmagan ota-onasini topishga harakat qilmoqda ...
Qo'sh. ma'lumot: 2008 yilgi Oscar taqdimotida filmdagi «Raise It Up» qo'shig'i Eng yaxshi qo'shiq nominatsiyasini olgan--Videoning sifati: BDRip
Video format: MKV
Video: MPEG-4 AVC, 2300 Кбит/с, 1024x426
Audio: O'zbekcha (AAC, 2 ch, 165 Кбит/с)
Audio 2: Ruscha (AC3, 6 ch, 448 Кбит/с)
Audio 3: Inglizcha (AC3, 6 ch, 448 Кбит/с)
Subtitrlar: Rus va Ingliz tillarida
--

Media Info

General
Unique ID : 40616935348568958842689266136365223140 (0x1E8E89862E97FE77D3CBD86A2F694CE4)
Format : Matroska
Format version : Version 4
File size : 2.67 GiB
Duration : 1 h 53 min
Overall bit rate : 3 361 kb/s
Movie name : --AlEr83--
Encoded date : UTC 2019-10-05 11:41:10
Writing application : mkvmerge v30.1.0 ('Forever And More') 64-bit
Writing library : libebml v1.3.6 + libmatroska v1.4.9
Video
ID : 1
Format : AVC
Format/Info : Advanced Video Codec
Format profile : High@L4.1
Format settings : CABAC / 8 Ref Frames
Format settings, CABAC : Yes
Format settings, Reference fra : 8 frames
Codec ID : V_MPEG4/ISO/AVC
Duration : 1 h 53 min
Bit rate : 2 300 kb/s
Width : 1 024 pixels
Height : 426 pixels
Display aspect ratio : 2.40:1
Frame rate mode : Constant
Frame rate : 23.976 FPS
Color space : YUV
Chroma subsampling : 4:2:0
Bit depth : 8 bits
Scan type : Progressive
Bits/(Pixel*Frame) : 0.220
Stream size : 1.83 GiB (68%)
Writing library : x264 core 114 r1924 08d04a4
Encoding settings : cabac=1 / ref=8 / deblock=1:-1:-1 / analyse=0x3:0x133 / me=umh / subme=9 / psy=1 / psy_rd=1.00:0.20 / mixed_ref=1 / me_range=48 / chroma_me=1 / trellis=1 / 8x8dct=1 / cqm=0 / deadzone=21,11 / fast_pskip=0 / chroma_qp_offset=-3 / threads=1 / sliced_threads=0 / nr=0 / decimate=0 / interlaced=0 / constrained_intra=0 / bframes=8 / b_pyramid=2 / b_adapt=2 / b_bias=0 / direct=1 / weightb=1 / open_gop=0 / weightp=2 / keyint=240 / keyint_min=23 / scenecut=40 / intra_refresh=0 / rc_lookahead=90 / rc=2pass / mbtree=1 / bitrate=2300 / ratetol=1.0 / qcomp=0.60 / qpmin=10 / qpmax=51 / qpstep=4 / cplxblur=20.0 / qblur=0.5 / ip_ratio=1.40 / aq=2:1.10
Language : English
Default : No
Forced : No
Audio #1
ID : 2
Format : AC-3
Format/Info : Audio Coding 3
Commercial name : Dolby Digital
Codec ID : A_AC3
Duration : 1 h 53 min
Bit rate mode : Constant
Bit rate : 448 kb/s
Channel(s) : 6 channels
Channel layout : L R C LFE Ls Rs
Sampling rate : 48.0 kHz
Frame rate : 31.250 FPS (1536 SPF)
Bit depth : 16 bits
Compression mode : Lossy
Stream size : 364 MiB (13%)
Language : Russian
Service kind : Complete Main
Default : No
Forced : No
Audio #2
ID : 3
Format : AC-3
Format/Info : Audio Coding 3
Commercial name : Dolby Digital
Codec ID : A_AC3
Duration : 1 h 53 min
Bit rate mode : Constant
Bit rate : 448 kb/s
Channel(s) : 6 channels
Channel layout : L R C LFE Ls Rs
Sampling rate : 48.0 kHz
Frame rate : 31.250 FPS (1536 SPF)
Bit depth : 16 bits
Compression mode : Lossy
Stream size : 364 MiB (13%)
Language : English
Service kind : Complete Main
Default : No
Forced : No
Audio #3
ID : 6
Format : AAC LC
Format/Info : Advanced Audio Codec Low Complexity
Codec ID : A_AAC-2
Duration : 1 h 53 min
Bit rate : 165 kb/s
Channel(s) : 2 channels
Channel layout : L R
Sampling rate : 48.0 kHz
Frame rate : 46.875 FPS (1024 SPF)
Compression mode : Lossy
Stream size : 134 MiB (5%)
Language : Uzbek
Default : Yes
Forced : No
Text #1
ID : 4
Format : UTF-8
Codec ID : S_TEXT/UTF8
Codec ID/Info : UTF-8 Plain Text
Duration : 1 h 53 min
Bit rate : 60 b/s
Count of elements : 920
Stream size : 50.4 KiB (0%)
Language : Russian
Default : Yes
Forced : No
Text #2
ID : 5
Format : UTF-8
Codec ID : S_TEXT/UTF8
Codec ID/Info : UTF-8 Plain Text
Duration : 1 h 53 min
Bit rate : 34 b/s
Count of elements : 919
Stream size : 28.3 KiB (0%)
Language : English
Default : No
Forced : No
LAVHALAR
.torrent yuklash

Yuqori tezlikda va bepul ko‘chirish!

Qanday yuklab olinadi? · Torrent nima o‘zi? · Reyting va cheklovlar

Profil ShX
Xabarlarni ko‘rsatish:    

Hozirgi vaqt: 15-Okt 04:28

Vaqtlar farqi: UTC + 5



Siz mavzu yaratishingiz mumkin emas
Siz xabarlarga javob qaytarishingiz mumkin emas
Siz o‘z xabarlaringizni tahrirlashingiz mumkin emas
Siz o‘z xabarlaringizni o‘chirishingiz mumkin emas
Siz so‘rovlarda ovoz berishingiz mumkin emas
Siz xabalarga fayllarni biriktirishingiz mumkin emas
Siz fayllarni ko‘chirishingiz mumkin emas